<?xml version="1.0" standalone="no"?>
<!DOCTYPE svg PUBLIC "-//W3C//DTD SVG 1.1//EN" "http://www.w3.org/Graphics/SVG/1.1/DTD/svg11.dtd" >
<svg xmlns="http://www.w3.org/2000/svg">
<defs>
  <font id="iconfont" horiz-adv-x="1250">
    <font-face font-family="iconfont"
      units-per-em="1000" ascent="1000"
      descent="0" />
    <missing-glyph horiz-adv-x="0" />
    <glyph glyph-name="zip-file"
      unicode="&#xF101;"
      horiz-adv-x="750" d="M125 93.75C107.8125 93.75 93.75 107.8125 93.75 125V875C93.75 892.1875 107.8125 906.25 125 906.25H218.75C218.75 889.0625 232.8125 875 250 875H312.5C329.6875 875 343.75 889.0625 343.75 906.25H437.5V750C437.5 715.4296875 465.4296875 687.5 500 687.5H656.25V125C656.25 107.8125 642.1875 93.75 625 93.75H125zM125 1000C56.0546875 1000 0 943.9453125 0 875V125C0 56.0546875 56.0546875 0 125 0H625C693.9453125 0 750 56.0546875 750 125V698.2421875C750 731.4453125 736.9140625 763.28125 713.4765625 786.71875L536.5234375 963.4765625C513.0859375 986.9140625 481.4453125 1000 448.2421875 1000H125zM218.75 781.25C218.75 764.0625 232.8125 750 250 750H312.5C329.6875 750 343.75 764.0625 343.75 781.25S329.6875 812.5 312.5 812.5H250C232.8125 812.5 218.75 798.4375 218.75 781.25zM218.75 656.25C218.75 639.0625 232.8125 625 250 625H312.5C329.6875 625 343.75 639.0625 343.75 656.25S329.6875 687.5 312.5 687.5H250C232.8125 687.5 218.75 673.4375 218.75 656.25zM206.4453125 516.015625L160.3515625 343.9453125C157.6171875 333.3984375000001 156.25 322.6562500000001 156.25 311.9140625000001C156.25 243.1640625000001 212.5 187.5000000000001 281.25 187.5000000000001S406.25 243.1640625000001 406.25 311.9140625000001C406.25 322.6562500000001 404.8828125 333.5937500000001 402.1484375 343.9453125L356.25 516.2109375C349.0234375000001 543.5546875 324.21875 562.6953125 295.8984375 562.6953125H266.796875C238.4765625 562.6953125 213.671875 543.75 206.4453125 516.2109375zM250 343.75H312.5C329.6875 343.75 343.75 329.6875 343.75 312.5S329.6875 281.25 312.5 281.25H250C232.8125 281.25 218.75 295.3125 218.75 312.5S232.8125 343.75 250 343.75z" />
    <glyph glyph-name="zip-file-1"
      unicode="&#x7A;&#x69;&#x70;&#x2D;&#x66;&#x69;&#x6C;&#x65;"
      horiz-adv-x="750" d="M125 93.75C107.8125 93.75 93.75 107.8125 93.75 125V875C93.75 892.1875 107.8125 906.25 125 906.25H218.75C218.75 889.0625 232.8125 875 250 875H312.5C329.6875 875 343.75 889.0625 343.75 906.25H437.5V750C437.5 715.4296875 465.4296875 687.5 500 687.5H656.25V125C656.25 107.8125 642.1875 93.75 625 93.75H125zM125 1000C56.0546875 1000 0 943.9453125 0 875V125C0 56.0546875 56.0546875 0 125 0H625C693.9453125 0 750 56.0546875 750 125V698.2421875C750 731.4453125 736.9140625 763.28125 713.4765625 786.71875L536.5234375 963.4765625C513.0859375 986.9140625 481.4453125 1000 448.2421875 1000H125zM218.75 781.25C218.75 764.0625 232.8125 750 250 750H312.5C329.6875 750 343.75 764.0625 343.75 781.25S329.6875 812.5 312.5 812.5H250C232.8125 812.5 218.75 798.4375 218.75 781.25zM218.75 656.25C218.75 639.0625 232.8125 625 250 625H312.5C329.6875 625 343.75 639.0625 343.75 656.25S329.6875 687.5 312.5 687.5H250C232.8125 687.5 218.75 673.4375 218.75 656.25zM206.4453125 516.015625L160.3515625 343.9453125C157.6171875 333.3984375000001 156.25 322.6562500000001 156.25 311.9140625000001C156.25 243.1640625000001 212.5 187.5000000000001 281.25 187.5000000000001S406.25 243.1640625000001 406.25 311.9140625000001C406.25 322.6562500000001 404.8828125 333.5937500000001 402.1484375 343.9453125L356.25 516.2109375C349.0234375000001 543.5546875 324.21875 562.6953125 295.8984375 562.6953125H266.796875C238.4765625 562.6953125 213.671875 543.75 206.4453125 516.2109375zM250 343.75H312.5C329.6875 343.75 343.75 329.6875 343.75 312.5S329.6875 281.25 312.5 281.25H250C232.8125 281.25 218.75 295.3125 218.75 312.5S232.8125 343.75 250 343.75z" />
    <glyph glyph-name="wechat"
      unicode="&#xF102;"
      horiz-adv-x="1000" d="M500 62.5A437.5 437.5 0 1 0 500 937.5A437.5 437.5 0 0 0 500 62.5zM404.625 380.625C411.1875000000001 380.625 417.75 381.5625 425.25 381.5625A174.25 174.25 0 0 0 418.6875 426.6875C418.6875 521.625 499.5 598.6875 602.9375 598.6875C609.5 598.6875 617 598.6875 623.5625 597.75C604.8125 685.125 510.8125 750 404.625 750C285.25 750 187.5 669.1875 187.5 565.8125C187.5 505.625 219.4375 456.75 273.9375 419.1875L252.3750000000001 354.3125L328.5 391.9375C355.75 386.3125000000001 377.375 380.6875000000001 404.625 380.6875000000001zM722.2500000000001 304.5C766.4375000000001 337.375 798.375 380.625 798.375 428.5625C798.375 515.0625 711.9375000000001 585.5 614.1875000000001 585.5C510.8125000000001 585.5 430.0000000000001 515.0625 430.0000000000001 428.625C430.0000000000001 342.125 510.8125000000001 271.625 614.1875000000001 271.625C635.8125000000001 271.625 657.4375000000001 277.25 679.0625000000001 282.875L738.2500000000001 250L722.2500000000001 304.5zM298.375 627.8125A33.8125 33.8125 0 1 0 366.0625 627.8125A33.8125 33.8125 0 0 0 298.375 627.8125zM449.6875 628.75A33.8125 33.8125 0 1 0 517.375 628.75A33.8125 33.8125 0 0 0 449.6875 628.75zM534.375 477.5A23.5 23.5 0 1 0 581.3750000000001 477.5A23.5 23.5 0 0 0 534.375 477.5zM653.75 475.5625A23.5 23.5 0 1 0 700.7500000000001 475.5625A23.5 23.5 0 0 0 653.75 475.5625z" />
    <glyph glyph-name="wechat-1"
      unicode="&#x77;&#x65;&#x63;&#x68;&#x61;&#x74;"
      horiz-adv-x="1000" d="M500 62.5A437.5 437.5 0 1 0 500 937.5A437.5 437.5 0 0 0 500 62.5zM404.625 380.625C411.1875000000001 380.625 417.75 381.5625 425.25 381.5625A174.25 174.25 0 0 0 418.6875 426.6875C418.6875 521.625 499.5 598.6875 602.9375 598.6875C609.5 598.6875 617 598.6875 623.5625 597.75C604.8125 685.125 510.8125 750 404.625 750C285.25 750 187.5 669.1875 187.5 565.8125C187.5 505.625 219.4375 456.75 273.9375 419.1875L252.3750000000001 354.3125L328.5 391.9375C355.75 386.3125000000001 377.375 380.6875000000001 404.625 380.6875000000001zM722.2500000000001 304.5C766.4375000000001 337.375 798.375 380.625 798.375 428.5625C798.375 515.0625 711.9375000000001 585.5 614.1875000000001 585.5C510.8125000000001 585.5 430.0000000000001 515.0625 430.0000000000001 428.625C430.0000000000001 342.125 510.8125000000001 271.625 614.1875000000001 271.625C635.8125000000001 271.625 657.4375000000001 277.25 679.0625000000001 282.875L738.2500000000001 250L722.2500000000001 304.5zM298.375 627.8125A33.8125 33.8125 0 1 0 366.0625 627.8125A33.8125 33.8125 0 0 0 298.375 627.8125zM449.6875 628.75A33.8125 33.8125 0 1 0 517.375 628.75A33.8125 33.8125 0 0 0 449.6875 628.75zM534.375 477.5A23.5 23.5 0 1 0 581.3750000000001 477.5A23.5 23.5 0 0 0 534.375 477.5zM653.75 475.5625A23.5 23.5 0 1 0 700.7500000000001 475.5625A23.5 23.5 0 0 0 653.75 475.5625z" />
    <glyph glyph-name="web"
      unicode="&#xF103;"
      horiz-adv-x="1000" d="M592.96875 188.28125C552.734375 107.8125 514.453125 93.75 500 93.75C493.9453125 93.75 483.7890625 96.2890625 471.09375 104.8828125L441.2109375 3.3203125C460.5468749999999 0.9765625 480.0781249999999 -0.1953125 499.9999999999999 -0.1953125C776.171875 -0.1953125 1000 223.6328125 1000 499.8046874999999S776.171875 1000 500 1000S0 776.171875 0 500C0 480.078125 1.171875 460.546875 3.515625 441.2109375L95.1171875 468.1640625C94.3359375 478.7109374999999 93.9453125 489.2578125 93.9453125 500C93.9453125 532.2265625 97.65625 563.671875 104.8828125 593.75H254.6875C252.1484375 567.7734375 250.78125 541.015625 250.3906250000001 513.671875L344.9218750000001 541.40625C345.7031250000001 559.1796875 347.0703125000001 576.5625 348.8281250000001 593.5546875H651.5625C654.6875000000001 563.671875 656.4453125 532.2265625 656.4453125 499.8046874999999S654.6875000000001 435.9375 651.5625 406.0546875H559.765625L532.2265625 312.3046875H636.1328125C625.1953124999999 264.6484375 610.3515625 222.65625 593.1640625 188.0859374999999zM407.03125 811.71875C447.265625 892.1875 485.546875 906.25 500 906.25S552.734375 892.1875 592.96875 811.71875C610.1562500000001 777.1484375 625 735.15625 635.9375 687.5H364.0625C375 735.15625 389.84375 777.1484375 407.03125 811.71875zM750 500C750 532.03125 748.4375 563.4765625 745.703125 593.75H895.5078125C902.5390625 563.671875 906.4453125 532.2265625 906.4453125 500S902.7343750000002 436.328125 895.5078125 406.25H745.703125C748.6328125 436.5234375 750 467.96875 750 500zM731.8359375 687.5C717.578125 757.6171875 695.703125 819.7265625 668.1640624999999 869.921875C750.78125 832.2265625 818.5546874999999 767.7734375 860.3515625 687.5H731.8359375zM139.453125 687.5C181.25 767.7734375 249.0234375 832.2265625 331.640625 869.921875C304.1015625000001 819.921875 282.2265625 757.6171875 267.9687500000001 687.5H139.453125zM731.8359375 312.5H860.546875C818.7500000000001 232.2265625 750.9765625 167.7734375 668.3593750000001 130.078125C695.8984375000001 180.0781250000001 717.7734375000001 242.3828125 732.0312500000001 312.5zM76.171875 397.4609375C49.0234375 389.453125 45.703125 352.1484375 71.09375 339.453125L183.0078125 283.3984375C185.546875 282.0312500000001 188.0859375 280.46875 190.234375 278.515625L18.359375 106.640625C-6.0546875 82.2265625 -6.0546875 42.578125 18.359375 18.1640625S82.421875 -6.2500000000001 106.8359375 18.1640625L278.7109375 190.0390625C280.6640625 187.890625 282.421875 185.546875 283.59375 182.8125L339.6484375 70.8984375C352.34375 45.5078125 389.6484375 48.828125 397.65625 75.9765625000001L515.2343749999999 475.9765625000001C522.265625 499.6093750000001 500.1953124999999 521.6796875000001 476.3671874999999 514.8437500000001L76.171875 397.4609375z" />
    <glyph glyph-name="web-1"
      unicode="&#x77;&#x65;&#x62;"
      horiz-adv-x="1000" d="M592.96875 188.28125C552.734375 107.8125 514.453125 93.75 500 93.75C493.9453125 93.75 483.7890625 96.2890625 471.09375 104.8828125L441.2109375 3.3203125C460.5468749999999 0.9765625 480.0781249999999 -0.1953125 499.9999999999999 -0.1953125C776.171875 -0.1953125 1000 223.6328125 1000 499.8046874999999S776.171875 1000 500 1000S0 776.171875 0 500C0 480.078125 1.171875 460.546875 3.515625 441.2109375L95.1171875 468.1640625C94.3359375 478.7109374999999 93.9453125 489.2578125 93.9453125 500C93.9453125 532.2265625 97.65625 563.671875 104.8828125 593.75H254.6875C252.1484375 567.7734375 250.78125 541.015625 250.3906250000001 513.671875L344.9218750000001 541.40625C345.7031250000001 559.1796875 347.0703125000001 576.5625 348.8281250000001 593.5546875H651.5625C654.6875000000001 563.671875 656.4453125 532.2265625 656.4453125 499.8046874999999S654.6875000000001 435.9375 651.5625 406.0546875H559.765625L532.2265625 312.3046875H636.1328125C625.1953124999999 264.6484375 610.3515625 222.65625 593.1640625 188.0859374999999zM407.03125 811.71875C447.265625 892.1875 485.546875 906.25 500 906.25S552.734375 892.1875 592.96875 811.71875C610.1562500000001 777.1484375 625 735.15625 635.9375 687.5H364.0625C375 735.15625 389.84375 777.1484375 407.03125 811.71875zM750 500C750 532.03125 748.4375 563.4765625 745.703125 593.75H895.5078125C902.5390625 563.671875 906.4453125 532.2265625 906.4453125 500S902.7343750000002 436.328125 895.5078125 406.25H745.703125C748.6328125 436.5234375 750 467.96875 750 500zM731.8359375 687.5C717.578125 757.6171875 695.703125 819.7265625 668.1640624999999 869.921875C750.78125 832.2265625 818.5546874999999 767.7734375 860.3515625 687.5H731.8359375zM139.453125 687.5C181.25 767.7734375 249.0234375 832.2265625 331.640625 869.921875C304.1015625000001 819.921875 282.2265625 757.6171875 267.9687500000001 687.5H139.453125zM731.8359375 312.5H860.546875C818.7500000000001 232.2265625 750.9765625 167.7734375 668.3593750000001 130.078125C695.8984375000001 180.0781250000001 717.7734375000001 242.3828125 732.0312500000001 312.5zM76.171875 397.4609375C49.0234375 389.453125 45.703125 352.1484375 71.09375 339.453125L183.0078125 283.3984375C185.546875 282.0312500000001 188.0859375 280.46875 190.234375 278.515625L18.359375 106.640625C-6.0546875 82.2265625 -6.0546875 42.578125 18.359375 18.1640625S82.421875 -6.2500000000001 106.8359375 18.1640625L278.7109375 190.0390625C280.6640625 187.890625 282.421875 185.546875 283.59375 182.8125L339.6484375 70.8984375C352.34375 45.5078125 389.6484375 48.828125 397.65625 75.9765625000001L515.2343749999999 475.9765625000001C522.265625 499.6093750000001 500.1953124999999 521.6796875000001 476.3671874999999 514.8437500000001L76.171875 397.4609375z" />
    <glyph glyph-name="wait"
      unicode="&#xF104;"
      horiz-adv-x="750" d="M0 46.875C0 20.8984375 20.8984375 0 46.875 0H703.125C729.1015625 0 750 20.8984375 750 46.875S729.1015625 93.75 703.125 93.75H687.5V130.859375C687.5 209.5703125 656.25 285.15625 600.5859375 340.8203125L441.2109375 500L600.390625 659.1796875C656.25 714.84375 687.5 790.4296875 687.5 869.140625V906.25H703.125C729.1015625 906.25 750 927.1484375 750 953.125S729.1015625 1000 703.125 1000H46.875C20.8984375 1000 0 979.1015625 0 953.125S20.8984375 906.25 46.875 906.25H62.5V869.140625C62.5 790.4296875 93.75 714.84375 149.4140625 659.1796875L308.7890625 500L149.4140625 340.8203125C93.75 285.15625 62.5 209.5703125 62.5 130.859375V93.75H46.875C20.8984375 93.75 0 72.8515625 0 46.875zM164.2578125 812.5C158.984375 830.6640625 156.25 849.8046875 156.25 869.140625V906.25H593.75V869.140625C593.75 849.8046875 591.015625 830.6640625 585.7421875 812.5H164.2578125zM534.1796875 274.4140625C572.265625 236.328125 593.75 184.765625 593.75 130.859375V93.75H156.25V130.859375C156.25 184.765625 177.734375 236.328125 215.8203125 274.4140625L375 433.7890625L534.1796875 274.609375z" />
    <glyph glyph-name="wait-1"
      unicode="&#x77;&#x61;&#x69;&#x74;"
      horiz-adv-x="750" d="M0 46.875C0 20.8984375 20.8984375 0 46.875 0H703.125C729.1015625 0 750 20.8984375 750 46.875S729.1015625 93.75 703.125 93.75H687.5V130.859375C687.5 209.5703125 656.25 285.15625 600.5859375 340.8203125L441.2109375 500L600.390625 659.1796875C656.25 714.84375 687.5 790.4296875 687.5 869.140625V906.25H703.125C729.1015625 906.25 750 927.1484375 750 953.125S729.1015625 1000 703.125 1000H46.875C20.8984375 1000 0 979.1015625 0 953.125S20.8984375 906.25 46.875 906.25H62.5V869.140625C62.5 790.4296875 93.75 714.84375 149.4140625 659.1796875L308.7890625 500L149.4140625 340.8203125C93.75 285.15625 62.5 209.5703125 62.5 130.859375V93.75H46.875C20.8984375 93.75 0 72.8515625 0 46.875zM164.2578125 812.5C158.984375 830.6640625 156.25 849.8046875 156.25 869.140625V906.25H593.75V869.140625C593.75 849.8046875 591.015625 830.6640625 585.7421875 812.5H164.2578125zM534.1796875 274.4140625C572.265625 236.328125 593.75 184.765625 593.75 130.859375V93.75H156.25V130.859375C156.25 184.765625 177.734375 236.328125 215.8203125 274.4140625L375 433.7890625L534.1796875 274.609375z" />
    <glyph glyph-name="version2"
      unicode="&#xF105;"
      horiz-adv-x="1000" d="M677 672C656 684 629 677 617 656L500 454L384 656C372 677 345.0000000000001 684 324 672S296 633 308 612L462.9999999999999 344.0000000000001V343.0000000000001C462.9999999999999 342.0000000000001 463.9999999999999 342.0000000000001 463.9999999999999 341.0000000000001S464.9999999999999 340.0000000000001 464.9999999999999 339.0000000000001V338.0000000000001L465.9999999999999 337.0000000000001L466.9999999999999 336.0000000000001L468 335.0000000000001C472 331.0000000000001 476 329.0000000000001 481 326.0000000000001C481 326.0000000000001 482 326.0000000000001 482 325.0000000000001H488C491 324.0000000000001 493 324.0000000000001 496 324.0000000000001H502C505 324.0000000000001 508 325.0000000000001 510 325.0000000000001H516S517 325.0000000000001 517 326.0000000000001C518 326.0000000000001 518 327.0000000000001 519 327.0000000000001C523 329.0000000000001 527 332.0000000000001 530 335.0000000000001L531 336.0000000000001L534 339.0000000000001C534 340.0000000000001 535 340.0000000000001 535 341.0000000000001S536 342.0000000000001 536 343.0000000000001V344.0000000000001L691.0000000000001 612.0000000000001C705.0000000000001 633.0000000000001 698.0000000000001 660.0000000000001 677 672.0000000000001zM500 995C227 995 5 773 5 500S227 5 500 5S995 227 995 500S773 995 500 995zM500 93C275 93 93 275 93 500S275 907 500 907S907 725 907 500S725 93 500 93z" />
    <glyph glyph-name="version2-1"
      unicode="&#x76;&#x65;&#x72;&#x73;&#x69;&#x6F;&#x6E;&#x32;"
      horiz-adv-x="1000" d="M677 672C656 684 629 677 617 656L500 454L384 656C372 677 345.0000000000001 684 324 672S296 633 308 612L462.9999999999999 344.0000000000001V343.0000000000001C462.9999999999999 342.0000000000001 463.9999999999999 342.0000000000001 463.9999999999999 341.0000000000001S464.9999999999999 340.0000000000001 464.9999999999999 339.0000000000001V338.0000000000001L465.9999999999999 337.0000000000001L466.9999999999999 336.0000000000001L468 335.0000000000001C472 331.0000000000001 476 329.0000000000001 481 326.0000000000001C481 326.0000000000001 482 326.0000000000001 482 325.0000000000001H488C491 324.0000000000001 493 324.0000000000001 496 324.0000000000001H502C505 324.0000000000001 508 325.0000000000001 510 325.0000000000001H516S517 325.0000000000001 517 326.0000000000001C518 326.0000000000001 518 327.0000000000001 519 327.0000000000001C523 329.0000000000001 527 332.0000000000001 530 335.0000000000001L531 336.0000000000001L534 339.0000000000001C534 340.0000000000001 535 340.0000000000001 535 341.0000000000001S536 342.0000000000001 536 343.0000000000001V344.0000000000001L691.0000000000001 612.0000000000001C705.0000000000001 633.0000000000001 698.0000000000001 660.0000000000001 677 672.0000000000001zM500 995C227 995 5 773 5 500S227 5 500 5S995 227 995 500S773 995 500 995zM500 93C275 93 93 275 93 500S275 907 500 907S907 725 907 500S725 93 500 93z" />
    <glyph glyph-name="version"
      unicode="&#xF106;"
      horiz-adv-x="1000" d="M500 225A175 175 0 1 1 500 575A175 175 0 1 1 500 225zM747.1875 362.5C729.0625 242.1875 625.3125 150 500 150S270.9375 242.1875 252.8125000000001 362.5H37.5C16.71875 362.5 0 379.21875 0 400S16.71875 437.5 37.5 437.5H252.8125000000001C270.9375 557.8125 374.6875 650 500 650S729.0625 557.8125 747.1875 437.5H962.5C983.2812499999998 437.5 1000 420.78125 1000 400S983.2812499999998 362.5 962.5 362.5H747.1875z" />
    <glyph glyph-name="version-1"
      unicode="&#x76;&#x65;&#x72;&#x73;&#x69;&#x6F;&#x6E;"
      horiz-adv-x="1000" d="M500 225A175 175 0 1 1 500 575A175 175 0 1 1 500 225zM747.1875 362.5C729.0625 242.1875 625.3125 150 500 150S270.9375 242.1875 252.8125000000001 362.5H37.5C16.71875 362.5 0 379.21875 0 400S16.71875 437.5 37.5 437.5H252.8125000000001C270.9375 557.8125 374.6875 650 500 650S729.0625 557.8125 747.1875 437.5H962.5C983.2812499999998 437.5 1000 420.78125 1000 400S983.2812499999998 362.5 962.5 362.5H747.1875z" />
    <glyph glyph-name="user"
      unicode="&#xF107;"
      horiz-adv-x="875" d="M437.5 593.75A156.25 156.25 0 1 1 437.5 906.25A156.25 156.25 0 1 1 437.5 593.75zM687.5 750A250 250 0 1 0 187.5 750A250 250 0 1 0 687.5 750zM94.3359375 93.75H780.6640625C774.6093749999999 186.1328125 714.84375 264.2578125 632.2265625 296.484375L535.15625 175C485.15625 112.5 390.0390625 112.5 339.84375 175L242.7734375 296.484375C160.15625 264.2578125 100.390625 186.1328125 94.3359375 93.75zM260.3515625 399.21875C271.2890625 401.5624999999999 282.4218750000001 397.0703124999999 289.4531250000001 388.2812499999999L413.2812500000001 233.5937499999999C425.7812500000001 217.9687499999999 449.6093750000001 217.9687499999999 462.1093750000001 233.5937499999999L585.9375 388.2812499999999C592.96875 397.0703124999999 604.1015625 401.3671874999999 615.0390625 399.21875C763.4765625 367.96875 875 236.1328125 875 78.125V62.5C875 27.9296875 847.0703125 0 812.5 0H62.5C27.9296875 0 0 27.9296875 0 62.5V78.125C0 236.1328125 111.5234375 367.96875 260.3515625 399.21875z" />
    <glyph glyph-name="user-1"
      unicode="&#x75;&#x73;&#x65;&#x72;"
      horiz-adv-x="875" d="M437.5 593.75A156.25 156.25 0 1 1 437.5 906.25A156.25 156.25 0 1 1 437.5 593.75zM687.5 750A250 250 0 1 0 187.5 750A250 250 0 1 0 687.5 750zM94.3359375 93.75H780.6640625C774.6093749999999 186.1328125 714.84375 264.2578125 632.2265625 296.484375L535.15625 175C485.15625 112.5 390.0390625 112.5 339.84375 175L242.7734375 296.484375C160.15625 264.2578125 100.390625 186.1328125 94.3359375 93.75zM260.3515625 399.21875C271.2890625 401.5624999999999 282.4218750000001 397.0703124999999 289.4531250000001 388.2812499999999L413.2812500000001 233.5937499999999C425.7812500000001 217.9687499999999 449.6093750000001 217.9687499999999 462.1093750000001 233.5937499999999L585.9375 388.2812499999999C592.96875 397.0703124999999 604.1015625 401.3671874999999 615.0390625 399.21875C763.4765625 367.96875 875 236.1328125 875 78.125V62.5C875 27.9296875 847.0703125 0 812.5 0H62.5C27.9296875 0 0 27.9296875 0 62.5V78.125C0 236.1328125 111.5234375 367.96875 260.3515625 399.21875z" />
    <glyph glyph-name="upload"
      unicode="&#xF108;"
      horiz-adv-x="1000" d="M208.4386720779221 498.7012987012987C183.4266469155844 498.7012987012987 166.7417021103896 515.3246753246754 166.7417029220779 540.2597402597403C166.7417029220779 702.3376623376623 295.9884561688312 831.1688311688312 458.5589228896104 831.1688311688312C583.6190478896104 831.1688311688312 696.1654642857144 748.0519480519481 737.8470422077922 627.5324675324675C742.018278409091 606.7532467532467 733.691198051948 581.8181818181818 708.6791728896104 577.6623376623377C687.822991883117 569.3506493506493 662.8109667207792 581.8181818181818 654.4838863636364 602.5974025974026C629.4718612012987 689.8701298701299 550.2645503246753 748.0519480519481 458.5281387987013 748.0519480519481C341.8104862012987 748.0519480519481 250.1048587662337 656.6233766233765 250.1048579545454 540.2597402597403C250.1048579545454 515.3246753246754 233.4353051948052 498.7012987012987 208.4232800324675 498.7012987012987zM750.3607499999999 166.2337662337662C725.3487248376623 166.2337662337662 708.679172077922 182.8571428571429 708.6791728896103 207.7922077922078S725.3487256493505 249.3506493506494 750.3607499999999 249.3506493506494C842.0663774350649 249.3506493506494 917.1024529220778 324.1558441558442 917.1024529220778 415.5844155844157S842.0663782467533 581.8181818181818 750.3607499999999 581.8181818181818C737.8470413961039 581.8181818181818 721.1774886363636 581.8181818181818 708.6791728896103 577.6623376623377C687.8229918831169 573.5064935064935 662.8109667207791 585.974025974026 658.655122564935 606.7532467532467C654.4838863636363 627.5324675324675 666.9822029220778 652.4675324675325 687.8229918831167 656.6233766233765C708.6791728896102 660.7792207792207 729.5199618506492 664.9350649350649 750.3607499999998 664.9350649350649C887.934583603896 664.9350649350649 1000.4810008116884 552.7272727272727 1000.4810008116884 415.5844155844156S887.91919237013 166.2337662337662 750.36075 166.2337662337662zM333.4987978896104 166.2337662337662H208.438672077922C183.4266469155844 166.2337662337662 166.7417021103896 182.8571428571429 166.7417029220779 207.7922077922078S183.4266477272727 249.3506493506494 208.438672077922 249.3506493506494H333.4987978896104C358.510823051948 249.3506493506494 375.1803758116883 232.7272727272728 375.1803749999999 207.7922077922078S358.5108222402597 166.2337662337662 333.4987978896104 166.2337662337662zM750.3607499999999 166.2337662337662H666.9822029220779C641.9701777597403 166.2337662337662 625.300625 182.8571428571429 625.300625 207.7922077922078S641.9701777597402 249.3506493506494 666.9822029220779 249.3506493506494H750.3607499999999C775.3727751623376 249.3506493506494 792.0423279220779 232.7272727272728 792.0423279220779 207.7922077922078S775.3727751623377 166.2337662337662 750.3607499999999 166.2337662337662zM208.438672077922 166.2337662337662C91.7056274350649 166.2337662337662 0 257.6623376623377 0 374.025974025974S91.7056274350649 581.8181818181818 208.4386720779221 581.8181818181818C233.4506972402598 581.8181818181818 250.12025 565.1948051948052 250.12025 540.2597402597403S233.4506972402598 498.7012987012987 208.4386720779221 498.7012987012987C137.5738336038961 498.7012987012987 83.3785470779221 444.6753246753247 83.3785470779221 374.025974025974S137.5584415584416 249.3506493506493 208.4386720779221 249.3506493506493C233.4506972402598 249.3506493506493 250.12025 232.7272727272727 250.12025 207.7922077922077S233.4506972402598 166.2337662337661 208.4386720779221 166.2337662337661zM500.2405 0C475.2284748376624 0 458.558922077922 16.6233766233767 458.5589228896104 41.5584415584416V457.1428571428572C458.5589228896104 482.0779220779222 475.2284756493506 498.7012987012987 500.2405 498.7012987012987C525.2525251623376 498.7012987012987 541.922077922078 482.0779220779221 541.922077922078 457.1428571428572V41.5584415584416C541.922077922078 16.6233766233767 525.2525251623377 0 500.2405 0zM375.180375 290.9090909090909C362.6666663961039 290.9090909090909 354.339586038961 295.0649350649351 345.9971136363636 303.3766233766234C329.3275608766234 320 329.3275608766234 344.935064935065 345.9971136363636 361.5584415584416L471.057239448052 486.2337662337663C487.7421842532468 502.8571428571429 512.7542094155845 502.8571428571429 529.4237613636363 486.2337662337663C546.0933141233767 469.6103896103896 546.0933141233767 444.6753246753248 529.4237613636363 428.0519480519481L404.3636363636364 303.3766233766235C396.021163961039 295.0649350649352 387.6786915584416 290.909090909091 375.1803750000001 290.909090909091zM625.300625 290.9090909090909C612.786916396104 290.9090909090909 604.459836038961 295.0649350649351 596.1173644480518 303.3766233766234L471.0572394480519 428.0519480519481C454.3876866883116 444.6753246753247 454.3876866883116 469.6103896103896 471.0572394480519 486.2337662337662C487.7421842532466 502.8571428571429 512.7542094155843 502.8571428571429 529.4237613636363 486.2337662337662L654.4838863636363 361.5584415584416C671.1534391233765 344.935064935065 671.1534391233765 320 654.4838863636363 303.3766233766234C646.1414139610389 295.0649350649351 637.7989415584415 290.9090909090909 625.3006249999999 290.9090909090909z" />
    <glyph glyph-name="upload-1"
      unicode="&#x75;&#x70;&#x6C;&#x6F;&#x61;&#x64;"
      horiz-adv-x="1000" d="M208.4386720779221 498.7012987012987C183.4266469155844 498.7012987012987 166.7417021103896 515.3246753246754 166.7417029220779 540.2597402597403C166.7417029220779 702.3376623376623 295.9884561688312 831.1688311688312 458.5589228896104 831.1688311688312C583.6190478896104 831.1688311688312 696.1654642857144 748.0519480519481 737.8470422077922 627.5324675324675C742.018278409091 606.7532467532467 733.691198051948 581.8181818181818 708.6791728896104 577.6623376623377C687.822991883117 569.3506493506493 662.8109667207792 581.8181818181818 654.4838863636364 602.5974025974026C629.4718612012987 689.8701298701299 550.2645503246753 748.0519480519481 458.5281387987013 748.0519480519481C341.8104862012987 748.0519480519481 250.1048587662337 656.6233766233765 250.1048579545454 540.2597402597403C250.1048579545454 515.3246753246754 233.4353051948052 498.7012987012987 208.4232800324675 498.7012987012987zM750.3607499999999 166.2337662337662C725.3487248376623 166.2337662337662 708.679172077922 182.8571428571429 708.6791728896103 207.7922077922078S725.3487256493505 249.3506493506494 750.3607499999999 249.3506493506494C842.0663774350649 249.3506493506494 917.1024529220778 324.1558441558442 917.1024529220778 415.5844155844157S842.0663782467533 581.8181818181818 750.3607499999999 581.8181818181818C737.8470413961039 581.8181818181818 721.1774886363636 581.8181818181818 708.6791728896103 577.6623376623377C687.8229918831169 573.5064935064935 662.8109667207791 585.974025974026 658.655122564935 606.7532467532467C654.4838863636363 627.5324675324675 666.9822029220778 652.4675324675325 687.8229918831167 656.6233766233765C708.6791728896102 660.7792207792207 729.5199618506492 664.9350649350649 750.3607499999998 664.9350649350649C887.934583603896 664.9350649350649 1000.4810008116884 552.7272727272727 1000.4810008116884 415.5844155844156S887.91919237013 166.2337662337662 750.36075 166.2337662337662zM333.4987978896104 166.2337662337662H208.438672077922C183.4266469155844 166.2337662337662 166.7417021103896 182.8571428571429 166.7417029220779 207.7922077922078S183.4266477272727 249.3506493506494 208.438672077922 249.3506493506494H333.4987978896104C358.510823051948 249.3506493506494 375.1803758116883 232.7272727272728 375.1803749999999 207.7922077922078S358.5108222402597 166.2337662337662 333.4987978896104 166.2337662337662zM750.3607499999999 166.2337662337662H666.9822029220779C641.9701777597403 166.2337662337662 625.300625 182.8571428571429 625.300625 207.7922077922078S641.9701777597402 249.3506493506494 666.9822029220779 249.3506493506494H750.3607499999999C775.3727751623376 249.3506493506494 792.0423279220779 232.7272727272728 792.0423279220779 207.7922077922078S775.3727751623377 166.2337662337662 750.3607499999999 166.2337662337662zM208.438672077922 166.2337662337662C91.7056274350649 166.2337662337662 0 257.6623376623377 0 374.025974025974S91.7056274350649 581.8181818181818 208.4386720779221 581.8181818181818C233.4506972402598 581.8181818181818 250.12025 565.1948051948052 250.12025 540.2597402597403S233.4506972402598 498.7012987012987 208.4386720779221 498.7012987012987C137.5738336038961 498.7012987012987 83.3785470779221 444.6753246753247 83.3785470779221 374.025974025974S137.5584415584416 249.3506493506493 208.4386720779221 249.3506493506493C233.4506972402598 249.3506493506493 250.12025 232.7272727272727 250.12025 207.7922077922077S233.4506972402598 166.2337662337661 208.4386720779221 166.2337662337661zM500.2405 0C475.2284748376624 0 458.558922077922 16.6233766233767 458.5589228896104 41.5584415584416V457.1428571428572C458.5589228896104 482.0779220779222 475.2284756493506 498.7012987012987 500.2405 498.7012987012987C525.2525251623376 498.7012987012987 541.922077922078 482.0779220779221 541.922077922078 457.1428571428572V41.5584415584416C541.922077922078 16.6233766233767 525.2525251623377 0 500.2405 0zM375.180375 290.9090909090909C362.6666663961039 290.9090909090909 354.339586038961 295.0649350649351 345.9971136363636 303.3766233766234C329.3275608766234 320 329.3275608766234 344.935064935065 345.9971136363636 361.5584415584416L471.057239448052 486.2337662337663C487.7421842532468 502.8571428571429 512.7542094155845 502.8571428571429 529.4237613636363 486.2337662337663C546.0933141233767 469.6103896103896 546.0933141233767 444.6753246753248 529.4237613636363 428.0519480519481L404.3636363636364 303.3766233766235C396.021163961039 295.0649350649352 387.6786915584416 290.909090909091 375.1803750000001 290.909090909091zM625.300625 290.9090909090909C612.786916396104 290.9090909090909 604.459836038961 295.0649350649351 596.1173644480518 303.3766233766234L471.0572394480519 428.0519480519481C454.3876866883116 444.6753246753247 454.3876866883116 469.6103896103896 471.0572394480519 486.2337662337662C487.7421842532466 502.8571428571429 512.7542094155843 502.8571428571429 529.4237613636363 486.2337662337662L654.4838863636363 361.5584415584416C671.1534391233765 344.935064935065 671.1534391233765 320 654.4838863636363 303.3766233766234C646.1414139610389 295.0649350649351 637.7989415584415 290.9090909090909 625.3006249999999 290.9090909090909z" />
    <glyph glyph-name="type"
      unicode="&#xF109;"
      horiz-adv-x="1000" d="M453.125 62.5C237.5 62.5 62.5 237.5 62.5 453.125S237.5 843.75 453.125 843.75C470.3125 843.75 484.375 829.6875 484.375 812.5V484.375H812.5C829.6875 484.375 843.75 470.3125 843.75 453.125C843.75 237.5 668.75 62.5 453.125 62.5zM421.875 779.6875C256.25 764.0625 125 623.4375 125 453.125C125 271.875 271.875 125 453.125 125C623.4375 125 764.0625 256.25 779.6875 421.875H453.125C435.9375 421.875 421.875 435.9375 421.875 453.125V779.6875zM906.25 546.875H578.125C560.9375 546.875 546.875 560.9375 546.875 578.125V906.25C546.875 923.4375 560.9375 937.5 578.125 937.5C776.5625 937.5 937.5 776.5625 937.5 578.125C937.5 560.9375 923.4375 546.875 906.25 546.875zM609.375 609.375H873.4375C859.375 748.4375 748.4375 859.375 609.375 873.4375V609.375z" />
    <glyph glyph-name="type-1"
      unicode="&#x74;&#x79;&#x70;&#x65;"
      horiz-adv-x="1000" d="M453.125 62.5C237.5 62.5 62.5 237.5 62.5 453.125S237.5 843.75 453.125 843.75C470.3125 843.75 484.375 829.6875 484.375 812.5V484.375H812.5C829.6875 484.375 843.75 470.3125 843.75 453.125C843.75 237.5 668.75 62.5 453.125 62.5zM421.875 779.6875C256.25 764.0625 125 623.4375 125 453.125C125 271.875 271.875 125 453.125 125C623.4375 125 764.0625 256.25 779.6875 421.875H453.125C435.9375 421.875 421.875 435.9375 421.875 453.125V779.6875zM906.25 546.875H578.125C560.9375 546.875 546.875 560.9375 546.875 578.125V906.25C546.875 923.4375 560.9375 937.5 578.125 937.5C776.5625 937.5 937.5 776.5625 937.5 578.125C937.5 560.9375 923.4375 546.875 906.25 546.875zM609.375 609.375H873.4375C859.375 748.4375 748.4375 859.375 609.375 873.4375V609.375z" />
    <glyph glyph-name="transfer"
      unicode="&#xF10A;"
      horiz-adv-x="1000" d="M500 940.625C259.375 940.625 62.5 743.75 62.5 503.125S259.375 65.625 500 65.625S937.5 262.5000000000001 937.5 503.1250000000001S740.625 940.625 500 940.625zM500 128.125C293.75 128.125 125 296.875 125 503.1250000000001S293.75 878.125 500 878.125S875 709.375 875 503.1250000000001C875 293.7500000000001 706.25 128.125 500 128.125zM312.5 531.25H687.5C706.25 531.25 718.75 543.75 718.75 562.5S706.25 593.75 687.5 593.75H409.375L459.375 631.25C471.875 640.625 475 662.5 465.6249999999999 675C456.2499999999999 687.5 434.375 690.625 421.875 681.25L296.875 587.5C287.5 578.125 281.25 565.625 284.375 553.125S300 531.25 312.5 531.25zM687.5 468.75H312.5C293.75 468.75 281.25 456.25 281.25 437.5S293.75 406.25 312.5 406.25H590.625L540.6249999999999 368.75C528.125 359.375 524.9999999999999 337.5 534.3749999999999 325.0000000000001C540.6249999999999 315.625 549.9999999999999 312.5000000000001 559.375 312.5000000000001C565.6249999999999 312.5000000000001 571.8749999999999 315.6250000000001 578.125 318.7500000000001L703.125 412.5000000000001C712.5 421.8750000000001 718.75 434.3750000000001 715.625 446.8750000000001C712.4999999999999 459.3750000000001 700 468.7500000000001 687.5 468.7500000000001z" />
    <glyph glyph-name="transfer-1"
      unicode="&#x74;&#x72;&#x61;&#x6E;&#x73;&#x66;&#x65;&#x72;"
      horiz-adv-x="1000" d="M500 940.625C259.375 940.625 62.5 743.75 62.5 503.125S259.375 65.625 500 65.625S937.5 262.5000000000001 937.5 503.1250000000001S740.625 940.625 500 940.625zM500 128.125C293.75 128.125 125 296.875 125 503.1250000000001S293.75 878.125 500 878.125S875 709.375 875 503.1250000000001C875 293.7500000000001 706.25 128.125 500 128.125zM312.5 531.25H687.5C706.25 531.25 718.75 543.75 718.75 562.5S706.25 593.75 687.5 593.75H409.375L459.375 631.25C471.875 640.625 475 662.5 465.6249999999999 675C456.2499999999999 687.5 434.375 690.625 421.875 681.25L296.875 587.5C287.5 578.125 281.25 565.625 284.375 553.125S300 531.25 312.5 531.25zM687.5 468.75H312.5C293.75 468.75 281.25 456.25 281.25 437.5S293.75 406.25 312.5 406.25H590.625L540.6249999999999 368.75C528.125 359.375 524.9999999999999 337.5 534.3749999999999 325.0000000000001C540.6249999999999 315.625 549.9999999999999 312.5000000000001 559.375 312.5000000000001C565.6249999999999 312.5000000000001 571.8749999999999 315.6250000000001 578.125 318.7500000000001L703.125 412.5000000000001C712.5 421.8750000000001 718.75 434.3750000000001 715.625 446.8750000000001C712.4999999999999 459.3750000000001 700 468.7500000000001 687.5 468.7500000000001z" />
    <glyph glyph-name="toolbox"
      unicode="&#xF10B;"
      horiz-adv-x="1000" d="M359.375 843.75L640.625 843.75C649.21875 843.75 656.25 836.71875 656.25 828.125L656.25 750L343.75 750L343.75 828.125C343.75 836.71875 350.78125 843.75 359.375 843.75zM250 828.125L250 750L195.1171875 750C170.3125 750 146.484375 740.0390625 128.90625 722.4609375L27.5390625 621.2890625C9.9609375 603.7109375 0 579.8828125 0 555.078125L0 359.375L0 187.5C0 118.5546875 56.0546875 62.5 125 62.5L875 62.5C943.9453125 62.5 1000 118.5546875 1000 187.5L1000 359.375L1000 554.8828125C1000 579.6875 990.0390625 603.515625 972.4609375 621.09375L871.09375 722.4609375C853.515625 740.0390625 829.6875 750 804.8828125 750L750 750L750 828.125C750 888.4765625 700.9765625 937.5 640.625 937.5L359.375 937.5C299.0234375 937.5 250 888.4765625 250 828.125zM906.25 406.25L718.75 406.25L718.75 437.5C718.75 463.4765625 697.8515625 484.375 671.875 484.375S625 463.4765625 625 437.5L625 406.25L375 406.25L375 437.5C375 463.4765625 354.1015625 484.375 328.125 484.375S281.25 463.4765625 281.25 437.5L281.25 406.25L93.75 406.25L93.75 554.8828125L195.1171875 656.25L804.8828125 656.25L906.25 554.8828125L906.25 406.25zM93.75 312.5L281.25 312.5L281.25 281.25C281.25 255.2734375 302.1484375 234.375 328.125 234.375S375 255.2734375 375 281.25L375 312.5L625 312.5L625 281.25C625 255.2734375 645.8984375 234.375 671.875 234.375S718.75 255.2734375 718.75 281.25L718.75 312.5L906.25 312.5L906.25 187.5C906.25 170.3125 892.1875 156.25 875 156.25L125 156.25C107.8125 156.25 93.75 170.3125 93.75 187.5L93.75 312.5z" />
    <glyph glyph-name="toolbox-1"
      unicode="&#x74;&#x6F;&#x6F;&#x6C;&#x62;&#x6F;&#x78;"
      horiz-adv-x="1000" d="M359.375 843.75L640.625 843.75C649.21875 843.75 656.25 836.71875 656.25 828.125L656.25 750L343.75 750L343.75 828.125C343.75 836.71875 350.78125 843.75 359.375 843.75zM250 828.125L250 750L195.1171875 750C170.3125 750 146.484375 740.0390625 128.90625 722.4609375L27.5390625 621.2890625C9.9609375 603.7109375 0 579.8828125 0 555.078125L0 359.375L0 187.5C0 118.5546875 56.0546875 62.5 125 62.5L875 62.5C943.9453125 62.5 1000 118.5546875 1000 187.5L1000 359.375L1000 554.8828125C1000 579.6875 990.0390625 603.515625 972.4609375 621.09375L871.09375 722.4609375C853.515625 740.0390625 829.6875 750 804.8828125 750L750 750L750 828.125C750 888.4765625 700.9765625 937.5 640.625 937.5L359.375 937.5C299.0234375 937.5 250 888.4765625 250 828.125zM906.25 406.25L718.75 406.25L718.75 437.5C718.75 463.4765625 697.8515625 484.375 671.875 484.375S625 463.4765625 625 437.5L625 406.25L375 406.25L375 437.5C375 463.4765625 354.1015625 484.375 328.125 484.375S281.25 463.4765625 281.25 437.5L281.25 406.25L93.75 406.25L93.75 554.8828125L195.1171875 656.25L804.8828125 656.25L906.25 554.8828125L906.25 406.25zM93.75 312.5L281.25 312.5L281.25 281.25C281.25 255.2734375 302.1484375 234.375 328.125 234.375S375 255.2734375 375 281.25L375 312.5L625 312.5L625 281.25C625 255.2734375 645.8984375 234.375 671.875 234.375S718.75 255.2734375 718.75 281.25L718.75 312.5L906.25 312.5L906.25 187.5C906.25 170.3125 892.1875 156.25 875 156.25L125 156.25C107.8125 156.25 93.75 170.3125 93.75 187.5L93.75 312.5z" />
    <glyph glyph-name="tianyi"
      unicode="&#xF10C;"
      horiz-adv-x="1000" d="M533.874552734375 699.9250986328125C454.2862666015625 770.6581611328124 300.0749003906251 739.9004541015624 242.8844111328125 677.2252822265625C138.627138671875 563.0013525390625 169.74726953125 459.4568466796875 209.855513671875 390.3546923828125C264.690248046875 295.882865234375 368.4038847656251 264.4727939453126 422.4292060546875 260.341162109375C615.2024736328125 245.626751953125 708.38165625 434.8120234374999 756.76524609375 495.6146708984375C804.2790185546875 555.330046875 856.54054296875 559.3771142578124 866.51928125 559.6428916015625H868.2105927734375C774.3911279296874 610.0922968749999 696.6632841796875 558.9663671874999 661.8343476562501 530.7456269531249C596.598046875 477.8317392578124 564.306078125 375.3503437499999 441.0094716796875 355.3203828125001C338.3227021484376 338.6488837890626 279.4409013671875 394.8245869140625 259.3867783203126 439.88595703125C207.5964042968751 556.4898037109375 277.04890234375 622.148931640625 310.9838603515626 642.142650390625C400.1522187500001 694.6820341796874 460.8461396484375 649.8501982421876 478.2062431640626 635.945201171875C513.8566728515625 607.4224414062501 508.71025390625 509.495505859375 412.1605292968751 512.1170390625C313.6295537109376 514.8110566406251 341.995263671875 617.3770175781251 341.9952646484376 617.3770175781251C303.0346962890626 582.1977382812502 288.1994785156251 468.7469794921876 383.2149414062501 425.4373251953125C484.693630859375 379.2041171875001 574.405625 439.9342812500001 599.9202666015626 485.2976708984376C642.5050742187501 560.935537109375 613.511162109375 629.1557939453126 533.8745527343751 699.9250986328125zM642.7950126953125 999.9879189453123C840.014013671875 999.9879189453123 999.8912724609374 840.11066015625 999.8912724609374 642.8916591796876V357.2049873046875C999.8912724609374 159.985986328125 840.014013671875 0.1087275390626 642.7950126953125 0.1087275390626H357.1083408203125C159.88933984375 0.1087275390626 0.0120810546875 159.985986328125 0.0120810546875 357.2049873046875V642.8916591796875C0.0120810546875 840.11066015625 159.88933984375 999.9879189453123 357.1083408203125 999.9879189453123z" />
    <glyph glyph-name="tianyi-1"
      unicode="&#x74;&#x69;&#x61;&#x6E;&#x79;&#x69;"
      horiz-adv-x="1000" d="M533.874552734375 699.9250986328125C454.2862666015625 770.6581611328124 300.0749003906251 739.9004541015624 242.8844111328125 677.2252822265625C138.627138671875 563.0013525390625 169.74726953125 459.4568466796875 209.855513671875 390.3546923828125C264.690248046875 295.882865234375 368.4038847656251 264.4727939453126 422.4292060546875 260.341162109375C615.2024736328125 245.626751953125 708.38165625 434.8120234374999 756.76524609375 495.6146708984375C804.2790185546875 555.330046875 856.54054296875 559.3771142578124 866.51928125 559.6428916015625H868.2105927734375C774.3911279296874 610.0922968749999 696.6632841796875 558.9663671874999 661.8343476562501 530.7456269531249C596.598046875 477.8317392578124 564.306078125 375.3503437499999 441.0094716796875 355.3203828125001C338.3227021484376 338.6488837890626 279.4409013671875 394.8245869140625 259.3867783203126 439.88595703125C207.5964042968751 556.4898037109375 277.04890234375 622.148931640625 310.9838603515626 642.142650390625C400.1522187500001 694.6820341796874 460.8461396484375 649.8501982421876 478.2062431640626 635.945201171875C513.8566728515625 607.4224414062501 508.71025390625 509.495505859375 412.1605292968751 512.1170390625C313.6295537109376 514.8110566406251 341.995263671875 617.3770175781251 341.9952646484376 617.3770175781251C303.0346962890626 582.1977382812502 288.1994785156251 468.7469794921876 383.2149414062501 425.4373251953125C484.693630859375 379.2041171875001 574.405625 439.9342812500001 599.9202666015626 485.2976708984376C642.5050742187501 560.935537109375 613.511162109375 629.1557939453126 533.8745527343751 699.9250986328125zM642.7950126953125 999.9879189453123C840.014013671875 999.9879189453123 999.8912724609374 840.11066015625 999.8912724609374 642.8916591796876V357.2049873046875C999.8912724609374 159.985986328125 840.014013671875 0.1087275390626 642.7950126953125 0.1087275390626H357.1083408203125C159.88933984375 0.1087275390626 0.0120810546875 159.985986328125 0.0120810546875 357.2049873046875V642.8916591796875C0.0120810546875 840.11066015625 159.88933984375 999.9879189453123 357.1083408203125 999.9879189453123z" />
    <glyph glyph-name="theme"
      unicode="&#xF10D;"
      horiz-adv-x="1000" d="M875 500C875 707.03125 707.03125 875 500 875V125C707.03125 125 875 292.96875 875 500zM0 500A500 500 0 1 0 1000 500A500 500 0 1 0 0 500z" />
    <glyph glyph-name="theme-1"
      unicode="&#x74;&#x68;&#x65;&#x6D;&#x65;"
      horiz-adv-x="1000" d="M875 500C875 707.03125 707.03125 875 500 875V125C707.03125 125 875 292.96875 875 500zM0 500A500 500 0 1 0 1000 500A500 500 0 1 0 0 500z" />
    <glyph glyph-name="stop"
      unicode="&#xF10E;"
      horiz-adv-x="1000" d="M906.25 500A406.25 406.25 0 1 1 93.75 500A406.25 406.25 0 1 1 906.25 500zM0 500A500 500 0 1 0 1000 500A500 500 0 1 0 0 500zM375 687.5H625C659.5703125 687.5 687.5 659.5703125 687.5 625V375C687.5 340.4296875 659.5703125 312.5 625 312.5H375C340.4296875 312.5 312.5 340.4296875 312.5 375V625C312.5 659.5703125 340.4296875 687.5 375 687.5z" />
    <glyph glyph-name="stop-1"
      unicode="&#x73;&#x74;&#x6F;&#x70;"
      horiz-adv-x="1000" d="M906.25 500A406.25 406.25 0 1 1 93.75 500A406.25 406.25 0 1 1 906.25 500zM0 500A500 500 0 1 0 1000 500A500 500 0 1 0 0 500zM375 687.5H625C659.5703125 687.5 687.5 659.5703125 687.5 625V375C687.5 340.4296875 659.5703125 312.5 625 312.5H375C340.4296875 312.5 312.5 340.4296875 312.5 375V625C312.5 659.5703125 340.4296875 687.5 375 687.5z" />
    <glyph glyph-name="sparkles"
      unicode="&#xF10F;"
      horiz-adv-x="1000" d="M639.6484375 833.59375C630.859375 830.2734375 625 821.875 625 812.5S630.859375 794.7265625 639.6484375 791.40625L750 750L791.40625 639.6484375C794.7265625 630.859375 803.125 625 812.5 625S830.2734375 630.859375 833.59375 639.6484375L875 750L985.3515625 791.40625C994.140625 794.7265625 1000 803.125 1000 812.5S994.140625 830.2734375 985.3515625 833.59375L875 875L833.59375 985.3515625C830.2734375 994.140625 821.875 1000 812.5 1000S794.7265625 994.140625 791.40625 985.3515625L750 875L639.6484375 833.59375zM18.1640625 531.25C7.03125 526.171875 0 515.0390625 0 502.734375S7.03125 479.4921875 18.1640625 474.4140625L51.3671875 458.984375L67.1875 451.7578125L68.359375 451.171875L240.8203125 371.484375L320.5078125 199.21875L321.09375 198.046875L328.3203125 182.2265624999999L343.75 148.8281249999999C348.828125 137.6953124999999 359.9609375 130.6640624999999 372.0703125 130.6640624999999S395.3125 137.6953124999999 400.390625 148.8281249999999L415.8203125 182.2265624999999L423.046875 198.046875L423.6328125 199.21875L503.3203125 371.6796875L675.78125 451.171875L676.953125 451.7578125L692.7734375000001 458.984375L726.1718750000001 474.4140625C737.3046875000001 479.4921875 744.3359375000001 490.625 744.3359375000001 502.7343749999999S737.3046875000001 525.9765625 726.1718750000001 531.0546875L692.7734375000001 546.484375L676.953125 553.7109375L675.78125 554.296875L503.3203125 633.984375L423.828125 806.4453125L423.2421875 807.6171875L416.015625 823.6328125L400.5859375 857.03125C395.5078125 868.1640625 384.375 875.1953125 372.265625 875.1953125S349.0234375 868.1640625 343.9453125 857.03125L328.515625 823.6328125L321.2890625 807.8125L320.703125 806.640625L241.015625 634.1796875000001L68.5546875 554.4921875L67.3828125 553.90625L51.5625 546.6796875L18.1640625 531.25zM180.2734375 502.9296875L280.2734375 549.0234375C300.5859375 558.3984375 316.796875 574.609375 326.171875 594.921875L372.265625 694.921875L418.359375 594.921875C427.734375 574.609375 443.9453125 558.3984375 464.2578125 549.0234375L564.2578125 502.9296875000001L464.2578125 456.8359375000001C443.9453125 447.4609375 427.734375 431.25 418.359375 410.9375000000001L372.265625 310.9375000000001L326.171875 410.9375000000001C316.796875 431.25 300.5859375 447.4609375 280.2734375 456.8359375000001L180.2734375 502.734375zM750 250L639.6484375 208.59375C630.859375 205.2734375 625 196.875 625 187.5S630.859375 169.7265625 639.6484375 166.40625L750 125L791.40625 14.6484375C794.7265625 5.859375 803.125 0 812.5 0S830.2734375 5.859375 833.59375 14.6484375L875 125L985.3515625 166.40625C994.140625 169.7265625 1000 178.125 1000 187.5S994.140625 205.2734375 985.3515625 208.59375L875 250L833.59375 360.3515625C830.2734375 369.140625 821.875 375 812.5 375S794.7265625 369.140625 791.40625 360.3515625L750 250z" />
    <glyph glyph-name="sparkles-1"
      unicode="&#x73;&#x70;&#x61;&#x72;&#x6B;&#x6C;&#x65;&#x73;"
      horiz-adv-x="1000" d="M639.6484375 833.59375C630.859375 830.2734375 625 821.875 625 812.5S630.859375 794.7265625 639.6484375 791.40625L750 750L791.40625 639.6484375C794.7265625 630.859375 803.125 625 812.5 625S830.2734375 630.859375 833.59375 639.6484375L875 750L985.3515625 791.40625C994.140625 794.7265625 1000 803.125 1000 812.5S994.140625 830.2734375 985.3515625 833.59375L875 875L833.59375 985.3515625C830.2734375 994.140625 821.875 1000 812.5 1000S794.7265625 994.140625 791.40625 985.3515625L750 875L639.6484375 833.59375zM18.1640625 531.25C7.03125 526.171875 0 515.0390625 0 502.734375S7.03125 479.4921875 18.1640625 474.4140625L51.3671875 458.984375L67.1875 451.7578125L68.359375 451.171875L240.8203125 371.484375L320.5078125 199.21875L321.09375 198.046875L328.3203125 182.2265624999999L343.75 148.8281249999999C348.828125 137.6953124999999 359.9609375 130.6640624999999 372.0703125 130.6640624999999S395.3125 137.6953124999999 400.390625 148.8281249999999L415.8203125 182.2265624999999L423.046875 198.046875L423.6328125 199.21875L503.3203125 371.6796875L675.78125 451.171875L676.953125 451.7578125L692.7734375000001 458.984375L726.1718750000001 474.4140625C737.3046875000001 479.4921875 744.3359375000001 490.625 744.3359375000001 502.7343749999999S737.3046875000001 525.9765625 726.1718750000001 531.0546875L692.7734375000001 546.484375L676.953125 553.7109375L675.78125 554.296875L503.3203125 633.984375L423.828125 806.4453125L423.2421875 807.6171875L416.015625 823.6328125L400.5859375 857.03125C395.5078125 868.1640625 384.375 875.1953125 372.265625 875.1953125S349.0234375 868.1640625 343.9453125 857.03125L328.515625 823.6328125L321.2890625 807.8125L320.703125 806.640625L241.015625 634.1796875000001L68.5546875 554.4921875L67.3828125 553.90625L51.5625 546.6796875L18.1640625 531.25zM180.2734375 502.9296875L280.2734375 549.0234375C300.5859375 558.3984375 316.796875 574.609375 326.171875 594.921875L372.265625 694.921875L418.359375 594.921875C427.734375 574.609375 443.9453125 558.3984375 464.2578125 549.0234375L564.2578125 502.9296875000001L464.2578125 456.8359375000001C443.9453125 447.4609375 427.734375 431.25 418.359375 410.9375000000001L372.265625 310.9375000000001L326.171875 410.9375000000001C316.796875 431.25 300.5859375 447.4609375 280.2734375 456.8359375000001L180.2734375 502.734375zM750 250L639.6484375 208.59375C630.859375 205.2734375 625 196.875 625 187.5S630.859375 169.7265625 639.6484375 166.40625L750 125L791.40625 14.6484375C794.7265625 5.859375 803.125 0 812.5 0S830.2734375 5.859375 833.59375 14.6484375L875 125L985.3515625 166.40625C994.140625 169.7265625 1000 178.125 1000 187.5S994.140625 205.2734375 985.3515625 208.59375L875 250L833.59375 360.3515625C830.2734375 369.140625 821.875 375 812.5 375S794.7265625 369.140625 791.40625 360.3515625L750 250z" />
    <glyph glyph-name="site"
      unicode="&#xF110;"
      horiz-adv-x="1000" d="M943.359375 688.0859375C964.6484375 736.1328125 985.15625 806.0546875 985.15625 859.765625C985.15625 1001.7578125 829.6874999999999 1051.953125 575.5859375 935.15625C365.4296875 949.21875 163.0859375 791.2109375 112.5 570.8984375C172.8515625 639.0625 265.4296875 731.640625 350.78125 768.5546875C244.921875 674.0234375 154.4921875 554.6875 85.9375 430.2734375C45.3125 356.0546875 0 236.5234375 0 147.0703125C0 -45.5078125 181.4453125 -21.8750000000001 352.1484375 65.0390625C413.4765625000001 34.9609375000001 482.2265625 34.5703125 550.78125 34.5703125C740.4296875 34.5703125 910.546875 140.625 974.21875 319.7265625H738.0859375C635.546875 146.6796875 353.7109375 216.2109375 353.7109375 412.3046874999999H995.8984375C1008.3984374999998 497.4609375 992.578125 599.2187499999999 943.359375 688.0859374999999zM126.171875 322.4609375C160.7421875 222.4609375000001 231.0546875 135.1562500000001 322.0703125 81.640625C148.828125 -13.8671875 -16.4062500000001 24.8046875 126.171875 322.4609375zM352.734375 535.15625C356.640625 642.9687500000001 450.9765624999999 720.5078125 555.859375 720.5078125C660.15625 720.5078125 755.078125 642.9687500000001 758.984375 535.15625H352.5390625zM713.0859375 901.5625C754.8828125 921.6796875 808.0078125000001 944.53125 854.8828125000001 944.53125C916.2109375 944.53125 960.9375000000002 902.1484375 960.9375000000002 839.6484375C960.9375000000002 800.5859375 946.4843750000002 743.9453125 932.4218750000002 707.03125C881.0546875 789.6484375 803.5156250000001 866.40625 713.0859375 901.5625z" />
    <glyph glyph-name="site-1"
      unicode="&#x73;&#x69;&#x74;&#x65;"
      horiz-adv-x="1000" d="M943.359375 688.0859375C964.6484375 736.1328125 985.15625 806.0546875 985.15625 859.765625C985.15625 1001.7578125 829.6874999999999 1051.953125 575.5859375 935.15625C365.4296875 949.21875 163.0859375 791.2109375 112.5 570.8984375C172.8515625 639.0625 265.4296875 731.640625 350.78125 768.5546875C244.921875 674.0234375 154.4921875 554.6875 85.9375 430.2734375C45.3125 356.0546875 0 236.5234375 0 147.0703125C0 -45.5078125 181.4453125 -21.8750000000001 352.1484375 65.0390625C413.4765625000001 34.9609375000001 482.2265625 34.5703125 550.78125 34.5703125C740.4296875 34.5703125 910.546875 140.625 974.21875 319.7265625H738.0859375C635.546875 146.6796875 353.7109375 216.2109375 353.7109375 412.3046874999999H995.8984375C1008.3984374999998 497.4609375 992.578125 599.2187499999999 943.359375 688.0859374999999zM126.171875 322.4609375C160.7421875 222.4609375000001 231.0546875 135.1562500000001 322.0703125 81.640625C148.828125 -13.8671875 -16.4062500000001 24.8046875 126.171875 322.4609375zM352.734375 535.15625C356.640625 642.9687500000001 450.9765624999999 720.5078125 555.859375 720.5078125C660.15625 720.5078125 755.078125 642.9687500000001 758.984375 535.15625H352.5390625zM713.0859375 901.5625C754.8828125 921.6796875 808.0078125000001 944.53125 854.8828125000001 944.53125C916.2109375 944.53125 960.9375000000002 902.1484375 960.9375000000002 839.6484375C960.9375000000002 800.5859375 946.4843750000002 743.9453125 932.4218750000002 707.03125C881.0546875 789.6484375 803.5156250000001 866.40625 713.0859375 901.5625z" />
    <glyph glyph-name="sign"
      unicode="&#xF111;"
      horiz-adv-x="1000" d="M250 796.875L259.3125 796.6875C341.25 793.75 380.1875 750.4375 380.1875 625C380.1875 567.6875 355.1875 503.4375 305.8125000000001 431.125L297.1875000000001 418.8125L299.0625000000001 416L308.3125000000001 403.1250000000001L326.2500000000001 379.5625C359.2500000000001 337.0625 364.0000000000001 338.875 377.6875000000001 359.3125L461.0000000000001 484.3125C485.0625000000001 520.5 541.1250000000001 507.2500000000001 546.5000000000001 464.125C557.1875000000001 378.5000000000001 581.4375 342.375 618.6875 338.8125L622.1875 338.6874999999999L620.75 338.9374999999999C619.375 339.3749999999999 620.625 340.3124999999999 622.5625 341.5624999999999L635.0625 350.3124999999999C639.125 353.25 643.7499999999999 356.6874999999999 648.9375 360.6874999999999L680.8124999999999 385.6249999999999C688.3124999999999 391.4374999999999 694.2499999999999 395.9374999999999 699.5625 399.8124999999999C722.3125 416.4374999999999 731.5625 421.8749999999999 750 421.8749999999999C788.25 421.8749999999999 834.8125 390.8124999999999 906.3125 326.4999999999999A46.875 46.875 0 0 0 843.75 256.875C808.1875000000001 288.75 779.8125 310.3125 763.8125 320.8125L756.5 325.375L746.875 318.1875L715 293.25C666.0625 255.125 650.5624999999999 244.875 625.0625 244.875C559.6875 244.875 512.5624999999999 278.6249999999999 483.4999999999999 340.1875L481.1249999999999 345.5625L455.7499999999999 307.4375C394.0625 214.875 320.625 235.6875 241.3749999999999 336.5625L236.75 342.5625L235 340.4375C216.6874999999999 319.375 196.625 297.75 174.875 275.4375L158.1875 258.5625A46.875 46.875 0 0 0 91.9374999999999 324.875C123.3125 356.2500000000001 150.8125 386 174.5625 414L183.75 425.0625L175.9375 439.875C146.875 496.2499999999999 125 557.9375 120.5625 609.1875L119.8125 624.1875C118.125 721.5625 174.0625 796.875 250 796.875zM259.125 703.125H250L246.3125 702.6875C230.3125 699.0625 212.75 672.0625 213.5625 625.8125C214 598.125 224.5625 561.25 240.4375 523.5625L245.8125 511.1874999999999L249.125 516.5C271.8125 555.1875 284.125 588.75 286.125 616.75L286.4375 625L286.1875000000001 661.875C285.4375000000001 693.6875 281.9375000000001 700.9375 266.8750000000001 702.625L259.1250000000001 703.0625z" />
    <glyph glyph-name="sign-1"
      unicode="&#x73;&#x69;&#x67;&#x6E;"
      horiz-adv-x="1000" d="M250 796.875L259.3125 796.6875C341.25 793.75 380.1875 750.4375 380.1875 625C380.1875 567.6875 355.1875 503.4375 305.8125000000001 431.125L297.1875000000001 418.8125L299.0625000000001 416L308.3125000000001 403.1250000000001L326.2500000000001 379.5625C359.2500000000001 337.0625 364.0000000000001 338.875 377.6875000000001 359.3125L461.0000000000001 484.3125C485.0625000000001 520.5 541.1250000000001 507.2500000000001 546.5000000000001 464.125C557.1875000000001 378.5000000000001 581.4375 342.375 618.6875 338.8125L622.1875 338.6874999999999L620.75 338.9374999999999C619.375 339.3749999999999 620.625 340.3124999999999 622.5625 341.5624999999999L635.0625 350.3124999999999C639.125 353.25 643.7499999999999 356.6874999999999 648.9375 360.6874999999999L680.8124999999999 385.6249999999999C688.3124999999999 391.4374999999999 694.2499999999999 395.9374999999999 699.5625 399.8124999999999C722.3125 416.4374999999999 731.5625 421.8749999999999 750 421.8749999999999C788.25 421.8749999999999 834.8125 390.8124999999999 906.3125 326.4999999999999A46.875 46.875 0 0 0 843.75 256.875C808.1875000000001 288.75 779.8125 310.3125 763.8125 320.8125L756.5 325.375L746.875 318.1875L715 293.25C666.0625 255.125 650.5624999999999 244.875 625.0625 244.875C559.6875 244.875 512.5624999999999 278.6249999999999 483.4999999999999 340.1875L481.1249999999999 345.5625L455.7499999999999 307.4375C394.0625 214.875 320.625 235.6875 241.3749999999999 336.5625L236.75 342.5625L235 340.4375C216.6874999999999 319.375 196.625 297.75 174.875 275.4375L158.1875 258.5625A46.875 46.875 0 0 0 91.9374999999999 324.875C123.3125 356.2500000000001 150.8125 386 174.5625 414L183.75 425.0625L175.9375 439.875C146.875 496.2499999999999 125 557.9375 120.5625 609.1875L119.8125 624.1875C118.125 721.5625 174.0625 796.875 250 796.875zM259.125 703.125H250L246.3125 702.6875C230.3125 699.0625 212.75 672.0625 213.5625 625.8125C214 598.125 224.5625 561.25 240.4375 523.5625L245.8125 511.1874999999999L249.125 516.5C271.8125 555.1875 284.125 588.75 286.125 616.75L286.4375 625L286.1875000000001 661.875C285.4375000000001 693.6875 281.9375000000001 700.9375 266.8750000000001 702.625L259.1250000000001 703.0625z" />
    <glyph glyph-name="setting"
      unicode="&#xF112;"
      horiz-adv-x="1000" d="M500 1000C533.203125 1000 565.625 996.6796875 597.265625 990.625C612.6953125 987.6953125 639.84375 978.7109375 654.6875 951.3671875C658.59375 944.140625 661.71875 936.5234375 663.671875 928.3203125L681.8359375 853.125C684.5703125 841.796875 703.7109375 830.6640625 714.84375 833.984375L789.0625 855.859375C796.875 858.203125 804.8828125 859.375 812.890625 859.5703125C844.3359375 860.546875 865.625 841.2109375 875.9765625 829.4921875C919.140625 780.46875 952.34375 722.8515625 973.4375 660.9375C978.515625 646.09375 984.375 618.359375 968.1640625 591.796875C963.8671875 584.765625 958.59375 578.125 952.5390625 572.265625L896.484375 518.9453125C888.28125 511.1328125 888.28125 488.671875 896.484375 480.859375L952.5390625 427.5390625C958.59375 421.6796875 963.8671875 415.0390625 968.1640625 408.0078125C984.1796875 381.4453124999999 978.3203125 353.7109374999999 973.4375 338.8671875C952.3437499999998 276.953125 919.1406249999998 219.53125 875.9765625 170.3125C865.625 158.59375 844.140625 139.2578125 812.890625 140.234375C804.8828124999999 140.4296875000001 796.875 141.796875 789.0625 143.9453125L714.84375 166.015625C703.7109375 169.3359375 684.5703125 158.203125 681.8359375 146.875L663.671875 71.6796875C661.71875 63.4765625 658.59375 55.6640625 654.6875 48.6328125C639.6484375 21.2890625 612.4999999999999 12.5 597.265625 9.3749999999999C565.625 3.3203125 533.203125 0 500 0S434.375 3.3203125 402.734375 9.375C387.3046875 12.3046875 360.15625 21.2890625000001 345.3125 48.6328125000001C341.40625 55.859375 338.28125 63.4765625000001 336.328125 71.6796875000001L318.1640625 146.8750000000001C315.4296875 158.2031250000001 296.2890625 169.3359375000001 285.15625 166.0156250000001L210.9375 144.1406250000001C203.125 141.7968750000001 195.1171875 140.6250000000001 187.109375 140.4296875000002C155.6640624999999 139.4531250000002 134.375 158.7890625000001 124.0234375 170.5078125000001C81.0546874999999 219.5312500000002 47.6562499999999 277.1484375000003 26.5624999999999 339.0625000000001C21.4843749999999 353.9062500000003 15.625 381.6406250000003 31.8359374999999 408.2031250000001C36.1328124999999 415.2343750000001 41.40625 421.8750000000001 47.4609374999999 427.7343750000001L103.515625 481.0546875C111.71875 488.8671875 111.71875 511.328125 103.515625 519.140625L47.265625 572.4609375C41.2109375 578.3203125 35.9375 584.9609375 31.640625 591.9921875C15.625 618.5546875 21.484375 646.2890625 26.5625 660.9375C47.65625 722.8515625 80.859375 780.2734375 124.0234375 829.4921875C134.375 841.2109375 155.859375 860.546875 187.109375 859.5703125C195.1171875 859.375 203.125 858.0078125 210.9375 855.859375L285.15625 833.984375C296.2890625 830.6640625 315.4296875 841.796875 318.1640625 853.125L336.3281250000001 928.3203125C338.2812500000001 936.5234375 341.40625 944.3359375 345.3125 951.3671875C360.3515625 978.7109375 387.5 987.5 402.7343750000001 990.625C434.375 996.6796875 466.796875 1000 500 1000zM425.9765625 899.609375L409.375 831.0546875C394.140625 767.96875 320.8984375 725.78125 258.59375 743.9453125L191.2109375 763.8671875C158.984375 726.171875 133.59375 682.421875 116.9921875 635.546875L168.1640625 586.9140625C215.0390625 542.3828125 215.0390625 457.6171874999999 168.1640625 413.0859375L116.9921875 364.453125C133.59375 317.578125 158.984375 273.8281250000001 191.2109375 236.1328125000001L258.7890625 256.0546875C320.8984375 274.4140625 394.3359375 232.03125 409.5703125 168.9453125L426.171875 100.390625C474.2187499999999 91.6015625 526.3671875 91.6015625 574.4140625 100.390625L591.015625 168.9453125C606.2500000000001 232.03125 679.4921875000001 274.21875 741.796875 256.0546875L809.3750000000001 236.1328125000001C841.6015625000001 273.8281250000001 866.9921875000001 317.578125 883.5937500000001 364.453125L832.4218750000001 413.0859375C785.5468750000001 457.6171875 785.5468750000001 542.3828125 832.4218750000001 586.9140625L883.5937500000001 635.546875C866.9921875000001 682.421875 841.6015625000001 726.171875 809.3750000000001 763.8671875L741.796875 743.9453125C679.6875 725.5859375 606.25 767.96875 591.015625 831.0546875L574.4140625 899.609375C526.3671875 908.3984375 474.21875 908.3984375 426.1718750000001 899.609375zM406.25 500A93.75 93.75 0 1 1 593.75 500A93.75 93.75 0 1 1 406.25 500zM500 312.5A187.5 187.5 0 1 0 500 687.5A187.5 187.5 0 1 0 500 312.5z" />
    <glyph glyph-name="setting-1"
      unicode="&#x73;&#x65;&#x74;&#x74;&#x69;&#x6E;&#x67;"
      horiz-adv-x="1000" d="M500 1000C533.203125 1000 565.625 996.6796875 597.265625 990.625C612.6953125 987.6953125 639.84375 978.7109375 654.6875 951.3671875C658.59375 944.140625 661.71875 936.5234375 663.671875 928.3203125L681.8359375 853.125C684.5703125 841.796875 703.7109375 830.6640625 714.84375 833.984375L789.0625 855.859375C796.875 858.203125 804.8828125 859.375 812.890625 859.5703125C844.3359375 860.546875 865.625 841.2109375 875.9765625 829.4921875C919.140625 780.46875 952.34375 722.8515625 973.4375 660.9375C978.515625 646.09375 984.375 618.359375 968.1640625 591.796875C963.8671875 584.765625 958.59375 578.125 952.5390625 572.265625L896.484375 518.9453125C888.28125 511.1328125 888.28125 488.671875 896.484375 480.859375L952.5390625 427.5390625C958.59375 421.6796875 963.8671875 415.0390625 968.1640625 408.0078125C984.1796875 381.4453124999999 978.3203125 353.7109374999999 973.4375 338.8671875C952.3437499999998 276.953125 919.1406249999998 219.53125 875.9765625 170.3125C865.625 158.59375 844.140625 139.2578125 812.890625 140.234375C804.8828124999999 140.4296875000001 796.875 141.796875 789.0625 143.9453125L714.84375 166.015625C703.7109375 169.3359375 684.5703125 158.203125 681.8359375 146.875L663.671875 71.6796875C661.71875 63.4765625 658.59375 55.6640625 654.6875 48.6328125C639.6484375 21.2890625 612.4999999999999 12.5 597.265625 9.3749999999999C565.625 3.3203125 533.203125 0 500 0S434.375 3.3203125 402.734375 9.375C387.3046875 12.3046875 360.15625 21.2890625000001 345.3125 48.6328125000001C341.40625 55.859375 338.28125 63.4765625000001 336.328125 71.6796875000001L318.1640625 146.8750000000001C315.4296875 158.2031250000001 296.2890625 169.3359375000001 285.15625 166.0156250000001L210.9375 144.1406250000001C203.125 141.7968750000001 195.1171875 140.6250000000001 187.109375 140.4296875000002C155.6640624999999 139.4531250000002 134.375 158.7890625000001 124.0234375 170.5078125000001C81.0546874999999 219.5312500000002 47.6562499999999 277.1484375000003 26.5624999999999 339.0625000000001C21.4843749999999 353.9062500000003 15.625 381.6406250000003 31.8359374999999 408.2031250000001C36.1328124999999 415.2343750000001 41.40625 421.8750000000001 47.4609374999999 427.7343750000001L103.515625 481.0546875C111.71875 488.8671875 111.71875 511.328125 103.515625 519.140625L47.265625 572.4609375C41.2109375 578.3203125 35.9375 584.9609375 31.640625 591.9921875C15.625 618.5546875 21.484375 646.2890625 26.5625 660.9375C47.65625 722.8515625 80.859375 780.2734375 124.0234375 829.4921875C134.375 841.2109375 155.859375 860.546875 187.109375 859.5703125C195.1171875 859.375 203.125 858.0078125 210.9375 855.859375L285.15625 833.984375C296.2890625 830.6640625 315.4296875 841.796875 318.1640625 853.125L336.3281250000001 928.3203125C338.2812500000001 936.5234375 341.40625 944.3359375 345.3125 951.3671875C360.3515625 978.7109375 387.5 987.5 402.7343750000001 990.625C434.375 996.6796875 466.796875 1000 500 1000zM425.9765625 899.609375L409.375 831.0546875C394.140625 767.96875 320.8984375 725.78125 258.59375 743.9453125L191.2109375 763.8671875C158.984375 726.171875 133.59375 682.421875 116.9921875 635.546875L168.1640625 586.9140625C215.0390625 542.3828125 215.0390625 457.6171874999999 168.1640625 413.0859375L116.9921875 364.453125C133.59375 317.578125 158.984375 273.8281250000001 191.2109375 236.1328125000001L258.7890625 256.0546875C320.8984375 274.4140625 394.3359375 232.03125 409.5703125 168.9453125L426.171875 100.390625C474.2187499999999 91.6015625 526.3671875 91.6015625 574.4140625 100.390625L591.015625 168.9453125C606.2500000000001 232.03125 679.4921875000001 274.21875 741.796875 256.0546875L809.3750000000001 236.1328125000001C841.6015625000001 273.8281250000001 866.9921875000001 317.578125 883.5937500000001 364.453125L832.4218750000001 413.0859375C785.5468750000001 457.6171875 785.5468750000001 542.3828125 832.4218750000001 586.9140625L883.5937500000001 635.546875C866.9921875000001 682.421875 841.6015625000001 726.171875 809.3750000000001 763.8671875L741.796875 743.9453125C679.6875 725.5859375 606.25 767.96875 591.015625 831.0546875L574.4140625 899.609375C526.3671875 908.3984375 474.21875 908.3984375 426.1718750000001 899.609375zM406.25 500A93.75 93.75 0 1 1 593.75 500A93.75 93.75 0 1 1 406.25 500zM500 312.5A187.5 187.5 0 1 0 500 687.5A187.5 187.5 0 1 0 500 312.5z" />
    <glyph glyph-name="security"
      unicode="&#xF113;"
      horiz-adv-x="1000" d="M142.578125 751.953125L500 903.515625L857.421875 751.953125C868.9453125 747.0703125 875.1953125 736.71875 875 726.953125C874.21875 548.4375 800 240.0390625 511.1328125 101.7578124999999C504.1015624999999 98.4375 495.8984374999999 98.4375 489.0624999999999 101.7578124999999C200 240.234375 125.9765625 548.4375 125 727.1484375C125 736.9140625 131.0546875 747.0703125 142.578125 752.1484375zM893.9453125 838.28125L526.171875 994.3359375C517.96875 998.046875 509.1796875 1000 500 1000S482.03125 998.046875 473.828125 994.3359375L106.0546875 838.28125C63.0859375 820.1171875 31.0546875 777.734375 31.25 726.5625C32.2265625 532.8125 111.9140625 178.3203125 448.4375 17.1875C481.0546874999999 1.5625 518.9453125 1.5625 551.5625 17.1875C888.28125 178.3203125 967.7734375 532.8125 968.75 726.5625C968.9453125 777.734375 936.9140625 820.1171875 893.9453125 838.28125zM720.703125 591.796875C739.0625 610.15625 739.0625 639.84375 720.703125 658.0078125S672.65625 676.3671875 654.4921875 658.0078125L437.6953125000001 441.2109375L345.8984375000001 533.0078125C327.5390625000001 551.3671875 297.8515625000001 551.3671875 279.6875000000001 533.0078125S261.328125 484.9609374999999 279.6875000000001 466.796875L404.6875000000001 341.796875C423.0468750000001 323.4375 452.734375 323.4375 470.8984375000001 341.796875L720.703125 591.796875z" />
    <glyph glyph-name="security-1"
      unicode="&#x73;&#x65;&#x63;&#x75;&#x72;&#x69;&#x74;&#x79;"
      horiz-adv-x="1000" d="M142.578125 751.953125L500 903.515625L857.421875 751.953125C868.9453125 747.0703125 875.1953125 736.71875 875 726.953125C874.21875 548.4375 800 240.0390625 511.1328125 101.7578124999999C504.1015624999999 98.4375 495.8984374999999 98.4375 489.0624999999999 101.7578124999999C200 240.234375 125.9765625 548.4375 125 727.1484375C125 736.9140625 131.0546875 747.0703125 142.578125 752.1484375zM893.9453125 838.28125L526.171875 994.3359375C517.96875 998.046875 509.1796875 1000 500 1000S482.03125 998.046875 473.828125 994.3359375L106.0546875 838.28125C63.0859375 820.1171875 31.0546875 777.734375 31.25 726.5625C32.2265625 532.8125 111.9140625 178.3203125 448.4375 17.1875C481.0546874999999 1.5625 518.9453125 1.5625 551.5625 17.1875C888.28125 178.3203125 967.7734375 532.8125 968.75 726.5625C968.9453125 777.734375 936.9140625 820.1171875 893.9453125 838.28125zM720.703125 591.796875C739.0625 610.15625 739.0625 639.84375 720.703125 658.0078125S672.65625 676.3671875 654.4921875 658.0078125L437.6953125000001 441.2109375L345.8984375000001 533.0078125C327.5390625000001 551.3671875 297.8515625000001 551.3671875 279.6875000000001 533.0078125S261.328125 484.9609374999999 279.6875000000001 466.796875L404.6875000000001 341.796875C423.0468750000001 323.4375 452.734375 323.4375 470.8984375000001 341.796875L720.703125 591.796875z" />
    <glyph glyph-name="search"
      unicode="&#xF114;"
      horiz-adv-x="1000" d="M812.5 593.75C812.5 504.1015625 783.3984375 421.2890625 734.375 354.1015625L981.640625 106.640625C1006.0546875 82.2265625 1006.0546875 42.578125 981.640625 18.1640625S917.578125 -6.2500000000001 893.1640625 18.1640625L645.8984375 265.625C578.7109375 216.40625 495.8984374999999 187.5 406.25 187.5C181.8359375 187.5 0 369.3359375 0 593.75S181.8359375 1000 406.25 1000S812.5 818.1640625 812.5 593.75zM406.25 312.5A281.25 281.25 0 1 1 406.25 875A281.25 281.25 0 1 1 406.25 312.5z" />
    <glyph glyph-name="search-1"
      unicode="&#x73;&#x65;&#x61;&#x72;&#x63;&#x68;"
      horiz-adv-x="1000" d="M812.5 593.75C812.5 504.1015625 783.3984375 421.2890625 734.375 354.1015625L981.640625 106.640625C1006.0546875 82.2265625 1006.0546875 42.578125 981.640625 18.1640625S917.578125 -6.2500000000001 893.1640625 18.1640625L645.8984375 265.625C578.7109375 216.40625 495.8984374999999 187.5 406.25 187.5C181.8359375 187.5 0 369.3359375 0 593.75S181.8359375 1000 406.25 1000S812.5 818.1640625 812.5 593.75zM406.25 312.5A281.25 281.25 0 1 1 406.25 875A281.25 281.25 0 1 1 406.25 312.5z" />
    <glyph glyph-name="save"
      unicode="&#xF115;"
      horiz-adv-x="875" d="M93.75 812.5V187.5C93.75 170.3125 107.8125 156.25 125 156.25H750C767.1875 156.25 781.25 170.3125 781.25 187.5V666.9921875C781.25 675.1953125 777.9296875 683.203125 772.0703125 689.0625L838.28125 755.2734375C861.71875 731.8359375 874.8046875 700 874.8046875 666.796875V187.5C874.8046875 118.5546875 818.75 62.5 749.8046875 62.5H125C56.0546875 62.5 0 118.5546875 0 187.5V812.5C0 881.4453125 56.0546875 937.5 125 937.5H604.4921875C637.6953125 937.5 669.53125 924.4140625 692.96875 900.9765625L838.4765625 755.46875L772.2656250000001 689.2578125L626.5625 834.5703125C625.9765625 835.15625 625.5859375 835.546875 625 836.1328125V640.625C625 614.6484375 604.1015625 593.75 578.125 593.75H203.125C177.1484375 593.75 156.25 614.6484375 156.25 640.625V843.75H125C107.8125 843.75 93.75 829.6875 93.75 812.5zM250 843.75V687.5H531.25V843.75H250zM312.5 375A125 125 0 1 0 562.5 375A125 125 0 1 0 312.5 375z" />
    <glyph glyph-name="save-1"
      unicode="&#x73;&#x61;&#x76;&#x65;"
      horiz-adv-x="875" d="M93.75 812.5V187.5C93.75 170.3125 107.8125 156.25 125 156.25H750C767.1875 156.25 781.25 170.3125 781.25 187.5V666.9921875C781.25 675.1953125 777.9296875 683.203125 772.0703125 689.0625L838.28125 755.2734375C861.71875 731.8359375 874.8046875 700 874.8046875 666.796875V187.5C874.8046875 118.5546875 818.75 62.5 749.8046875 62.5H125C56.0546875 62.5 0 118.5546875 0 187.5V812.5C0 881.4453125 56.0546875 937.5 125 937.5H604.4921875C637.6953125 937.5 669.53125 924.4140625 692.96875 900.9765625L838.4765625 755.46875L772.2656250000001 689.2578125L626.5625 834.5703125C625.9765625 835.15625 625.5859375 835.546875 625 836.1328125V640.625C625 614.6484375 604.1015625 593.75 578.125 593.75H203.125C177.1484375 593.75 156.25 614.6484375 156.25 640.625V843.75H125C107.8125 843.75 93.75 829.6875 93.75 812.5zM250 843.75V687.5H531.25V843.75H250zM312.5 375A125 125 0 1 0 562.5 375A125 125 0 1 0 312.5 375z" />
    <glyph glyph-name="right"
      unicode="&#xF116;"
      horiz-adv-x="625" d="M533.203125 533.203125C551.5625 514.84375 551.5625 485.15625 533.203125 466.9921875L220.703125 154.296875C202.34375 135.9375 172.65625 135.9375 154.4921875 154.296875S136.1328125 202.34375 154.4921875 220.5078125L433.7890625 499.8046874999999L154.296875 779.296875C135.9375 797.65625 135.9375 827.34375 154.296875 845.5078125S202.34375 863.8671875 220.5078125 845.5078125L533.203125 533.203125z" />
    <glyph glyph-name="right-1"
      unicode="&#x72;&#x69;&#x67;&#x68;&#x74;"
      horiz-adv-x="625" d="M533.203125 533.203125C551.5625 514.84375 551.5625 485.15625 533.203125 466.9921875L220.703125 154.296875C202.34375 135.9375 172.65625 135.9375 154.4921875 154.296875S136.1328125 202.34375 154.4921875 220.5078125L433.7890625 499.8046874999999L154.296875 779.296875C135.9375 797.65625 135.9375 827.34375 154.296875 845.5078125S202.34375 863.8671875 220.5078125 845.5078125L533.203125 533.203125z" />
    <glyph glyph-name="refresh"
      unicode="&#xF117;"
      horiz-adv-x="1000" d="M905.2734375 562.5H921.875C947.8515625 562.5 968.75 583.3984375 968.75 609.375V859.375C968.75 878.3203125 957.421875 895.5078125 939.84375 902.734375S902.1484375 906.0546875 888.671875 892.578125L807.421875 811.328125C636.3281249999999 980.2734375 360.7421875 979.6875 190.625 809.375C19.7265624999999 638.4765625 19.7265624999999 361.5234375 190.625 190.625S638.4765625 19.7265625 809.375 190.625C833.7890625 215.0390625 833.7890625 254.6875000000001 809.375 279.1015625000001S745.3124999999999 303.5156250000001 720.8984374999999 279.1015625000001C598.8281249999999 157.0312500000001 400.9765624999999 157.0312500000001 278.9062499999999 279.1015625000001S156.8359374999999 599.0234375000001 278.9062499999999 721.0937500000001C400.3906249999999 842.5781250000001 596.6796874999999 843.1640625000001 718.9453124999999 723.0468750000001L638.671875 642.578125C625.1953125 629.1015625 621.2890625 608.984375 628.515625 591.40625S652.9296875 562.5 671.875 562.5H905.2734375z" />
    <glyph glyph-name="refresh-1"
      unicode="&#x72;&#x65;&#x66;&#x72;&#x65;&#x73;&#x68;"
      horiz-adv-x="1000" d="M905.2734375 562.5H921.875C947.8515625 562.5 968.75 583.3984375 968.75 609.375V859.375C968.75 878.3203125 957.421875 895.5078125 939.84375 902.734375S902.1484375 906.0546875 888.671875 892.578125L807.421875 811.328125C636.3281249999999 980.2734375 360.7421875 979.6875 190.625 809.375C19.7265624999999 638.4765625 19.7265624999999 361.5234375 190.625 190.625S638.4765625 19.7265625 809.375 190.625C833.7890625 215.0390625 833.7890625 254.6875000000001 809.375 279.1015625000001S745.3124999999999 303.5156250000001 720.8984374999999 279.1015625000001C598.8281249999999 157.0312500000001 400.9765624999999 157.0312500000001 278.9062499999999 279.1015625000001S156.8359374999999 599.0234375000001 278.9062499999999 721.0937500000001C400.3906249999999 842.5781250000001 596.6796874999999 843.1640625000001 718.9453124999999 723.0468750000001L638.671875 642.578125C625.1953125 629.1015625 621.2890625 608.984375 628.515625 591.40625S652.9296875 562.5 671.875 562.5H905.2734375z" />
    <glyph glyph-name="qq"
      unicode="&#xF118;"
      horiz-adv-x="1000" d="M500 937.5C258.3984375 937.5 62.5 741.6015625 62.5 500S258.3984375 62.5 500 62.5S937.5 258.3984375 937.5 500S741.6015625 937.5 500 937.5zM705.56640625 339.453125C694.3359375 338.0859375 661.71875 390.9179687500001 661.71875 390.9179687500001C661.71875 360.3515625000001 645.8984375 320.41015625 611.81640625 291.5039062500001C628.3203125 286.4257812500001 665.4296875 272.7539062500001 656.640625 257.9101562500001C649.51171875 245.8984375000003 533.984375 250.1953125000001 500.5859374999999 254.0039062500001C467.1874999999999 250.2929687500003 351.6601562499999 245.8984375000003 344.5312499999999 257.9101562500001C335.6445312499999 272.7539062500003 372.7539062499999 286.4257812500003 389.2578124999999 291.5039062500001C355.0781249999999 320.3125000000001 339.3554687499999 360.2539062500001 339.3554687499999 390.9179687500001C339.3554687499999 390.9179687500001 306.7382812499999 338.0859375 295.5078124999999 339.453125C290.234375 340.1367187500001 283.3984375 368.359375 304.6874999999999 436.8164062500001C314.7460937499999 469.0429687500001 326.1718749999999 495.8984375000001 343.9453124999999 540.13671875C340.9179687499999 654.2968750000001 388.1835937499999 750.0976562500001 500.5859374999999 750.0976562500001C611.8164062499999 750.0976562500001 660.0585937499999 656.2500000000001 657.2265624999999 540.13671875C674.9023437499999 495.9960937500001 686.4257812499999 469.0429687500001 696.4843749999999 436.8164062500001C717.67578125 368.359375 710.7421875 340.0390625 705.5664062499999 339.453125z" />
    <glyph glyph-name="qq-1"
      unicode="&#x71;&#x71;"
      horiz-adv-x="1000" d="M500 937.5C258.3984375 937.5 62.5 741.6015625 62.5 500S258.3984375 62.5 500 62.5S937.5 258.3984375 937.5 500S741.6015625 937.5 500 937.5zM705.56640625 339.453125C694.3359375 338.0859375 661.71875 390.9179687500001 661.71875 390.9179687500001C661.71875 360.3515625000001 645.8984375 320.41015625 611.81640625 291.5039062500001C628.3203125 286.4257812500001 665.4296875 272.7539062500001 656.640625 257.9101562500001C649.51171875 245.8984375000003 533.984375 250.1953125000001 500.5859374999999 254.0039062500001C467.1874999999999 250.2929687500003 351.6601562499999 245.8984375000003 344.5312499999999 257.9101562500001C335.6445312499999 272.7539062500003 372.7539062499999 286.4257812500003 389.2578124999999 291.5039062500001C355.0781249999999 320.3125000000001 339.3554687499999 360.2539062500001 339.3554687499999 390.9179687500001C339.3554687499999 390.9179687500001 306.7382812499999 338.0859375 295.5078124999999 339.453125C290.234375 340.1367187500001 283.3984375 368.359375 304.6874999999999 436.8164062500001C314.7460937499999 469.0429687500001 326.1718749999999 495.8984375000001 343.9453124999999 540.13671875C340.9179687499999 654.2968750000001 388.1835937499999 750.0976562500001 500.5859374999999 750.0976562500001C611.8164062499999 750.0976562500001 660.0585937499999 656.2500000000001 657.2265624999999 540.13671875C674.9023437499999 495.9960937500001 686.4257812499999 469.0429687500001 696.4843749999999 436.8164062500001C717.67578125 368.359375 710.7421875 340.0390625 705.5664062499999 339.453125z" />
    <glyph glyph-name="price"
      unicode="&#xF119;"
      horiz-adv-x="1000" d="M818.181818359375 918.181818359375C871.21212109375 918.181818359375 913.6363642578124 875.757576171875 913.63636328125 822.7272724609375V601.5151513671874C913.63636328125 548.4848486328125 883.3333330078125 475.7575751953125 846.969697265625 439.393939453125L515.151515625 109.0909091796874C478.7878789062499 72.7272724609375 418.181818359375 72.7272724609375 380.3030302734375 109.0909091796874L103.030302734375 386.36363671875C66.666666015625 422.7272734374999 66.666666015625 483.3333339843749 103.030302734375 521.2121210937499L434.848484375 851.5151513671875C471.21212109375 887.8787880859375 545.454544921875 918.181818359375 596.969697265625 918.181818359375H818.181818359375zM818.181818359375 856.0606064453125H596.969697265625C560.606060546875 856.0606064453125 504.545455078125 831.8181826171875 478.7878789062499 807.5757578125L148.4848486328125 475.757576171875C136.36363671875 463.6363642578125 136.36363671875 442.4242431640625 148.4848486328125 430.3030302734376L425.7575761718751 153.030302734375C437.8787880859376 140.9090908203126 459.0909091796875 140.9090908203126 471.2121210937501 153.030302734375L801.5151513671875 483.3333330078125C827.2727275390625 509.0909091796875 850.0000000000001 565.1515146484375 850.0000000000001 601.5151513671874V824.242423828125C851.5151513671876 840.9090908203125 836.3636367187502 856.06060546875 818.1818183593751 856.0606064453125zM619.6969697265625 562.1212119140625C654.5454541015625 562.1212119140625 681.818181640625 590.9090908203125 681.818181640625 624.2424238281251S653.030302734375 686.3636357421875 619.6969697265625 686.3636367187501S557.5757578125 657.5757578125 557.5757578125 624.2424238281251S584.8484853515625 562.1212119140625 619.6969697265625 562.1212119140625zM619.6969697265625 500C550 500 493.9393935546875 556.0606064453125 493.9393935546875 625.7575761718749S550 751.5151523437501 619.6969697265625 751.5151513671875S745.4545458984375 695.4545449218749 745.4545458984375 625.7575761718749S689.393939453125 500 619.6969697265625 500z" />
    <glyph glyph-name="price-1"
      unicode="&#x70;&#x72;&#x69;&#x63;&#x65;"
      horiz-adv-x="1000" d="M818.181818359375 918.181818359375C871.21212109375 918.181818359375 913.6363642578124 875.757576171875 913.63636328125 822.7272724609375V601.5151513671874C913.63636328125 548.4848486328125 883.3333330078125 475.7575751953125 846.969697265625 439.393939453125L515.151515625 109.0909091796874C478.7878789062499 72.7272724609375 418.181818359375 72.7272724609375 380.3030302734375 109.0909091796874L103.030302734375 386.36363671875C66.666666015625 422.7272734374999 66.666666015625 483.3333339843749 103.030302734375 521.2121210937499L434.848484375 851.5151513671875C471.21212109375 887.8787880859375 545.454544921875 918.181818359375 596.969697265625 918.181818359375H818.181818359375zM818.181818359375 856.0606064453125H596.969697265625C560.606060546875 856.0606064453125 504.545455078125 831.8181826171875 478.7878789062499 807.5757578125L148.4848486328125 475.757576171875C136.36363671875 463.6363642578125 136.36363671875 442.4242431640625 148.4848486328125 430.3030302734376L425.7575761718751 153.030302734375C437.8787880859376 140.9090908203126 459.0909091796875 140.9090908203126 471.2121210937501 153.030302734375L801.5151513671875 483.3333330078125C827.2727275390625 509.0909091796875 850.0000000000001 565.1515146484375 850.0000000000001 601.5151513671874V824.242423828125C851.5151513671876 840.9090908203125 836.3636367187502 856.06060546875 818.1818183593751 856.0606064453125zM619.6969697265625 562.1212119140625C654.5454541015625 562.1212119140625 681.818181640625 590.9090908203125 681.818181640625 624.2424238281251S653.030302734375 686.3636357421875 619.6969697265625 686.3636367187501S557.5757578125 657.5757578125 557.5757578125 624.2424238281251S584.8484853515625 562.1212119140625 619.6969697265625 562.1212119140625zM619.6969697265625 500C550 500 493.9393935546875 556.0606064453125 493.9393935546875 625.7575761718749S550 751.5151523437501 619.6969697265625 751.5151513671875S745.4545458984375 695.4545449218749 745.4545458984375 625.7575761718749S689.393939453125 500 619.6969697265625 500z" />
    <glyph glyph-name="plus"
      unicode="&#xF11A;"
      horiz-adv-x="1000" d="M926.0869560546874 567.3913046875L565.217390625 567.3913046875L565.217390625 928.2608701171876C565.217390625 965.2173916015624 534.7826083984374 995.6521748046875 497.8260859375 995.6521748046875C460.869564453125 995.6521748046875 430.43478125 965.217392578125 430.43478125 928.2608701171876L430.43478125 567.3913046875L69.5652158203125 567.3913046875C32.6086943359375 567.3913046875 2.1739111328125 536.9565224609375 2.1739111328125 500C2.1739111328125 463.043478515625 32.608693359375 432.6086953125 69.5652158203125 432.6086953125L430.43478125 432.6086953125L430.43478125 71.7391298828125C430.43478125 34.7826083984374 460.8695634765625 4.3478251953126 497.8260859375 4.3478251953126C534.782607421875 4.3478251953126 565.217390625 34.782607421875 565.217390625 71.7391298828125L565.217390625 432.6086953125L926.0869560546874 432.6086953125C963.0434775390625 432.6086953125 993.4782607421874 463.0434775390625 993.4782607421874 500C993.4782607421874 536.956521484375 965.2173916015626 567.3913046875 926.0869560546874 567.3913046875z" />
    <glyph glyph-name="plus-1"
      unicode="&#x70;&#x6C;&#x75;&#x73;"
      horiz-adv-x="1000" d="M926.0869560546874 567.3913046875L565.217390625 567.3913046875L565.217390625 928.2608701171876C565.217390625 965.2173916015624 534.7826083984374 995.6521748046875 497.8260859375 995.6521748046875C460.869564453125 995.6521748046875 430.43478125 965.217392578125 430.43478125 928.2608701171876L430.43478125 567.3913046875L69.5652158203125 567.3913046875C32.6086943359375 567.3913046875 2.1739111328125 536.9565224609375 2.1739111328125 500C2.1739111328125 463.043478515625 32.608693359375 432.6086953125 69.5652158203125 432.6086953125L430.43478125 432.6086953125L430.43478125 71.7391298828125C430.43478125 34.7826083984374 460.8695634765625 4.3478251953126 497.8260859375 4.3478251953126C534.782607421875 4.3478251953126 565.217390625 34.782607421875 565.217390625 71.7391298828125L565.217390625 432.6086953125L926.0869560546874 432.6086953125C963.0434775390625 432.6086953125 993.4782607421874 463.0434775390625 993.4782607421874 500C993.4782607421874 536.956521484375 965.2173916015626 567.3913046875 926.0869560546874 567.3913046875z" />
    <glyph glyph-name="play"
      unicode="&#xF11B;"
      horiz-adv-x="750" d="M93.75 156.25L656.25 500L93.75 843.75L93.75 156.25zM47.8515625 925.5859375C77.5390625 942.1875 113.671875 941.40625 142.578125 923.828125L705.078125 580.078125C733.0078125 563.0859375 750 532.8125 750 500S733.0078125 437.109375 705.078125 419.921875L142.578125 76.171875C113.671875 58.3984375 77.34375 57.8125 47.8515625 74.4140625S0 122.265625 0 156.25V843.75C0 877.734375 18.359375 908.984375 47.8515625 925.5859375z" />
    <glyph glyph-name="play-1"
      unicode="&#x70;&#x6C;&#x61;&#x79;"
      horiz-adv-x="750" d="M93.75 156.25L656.25 500L93.75 843.75L93.75 156.25zM47.8515625 925.5859375C77.5390625 942.1875 113.671875 941.40625 142.578125 923.828125L705.078125 580.078125C733.0078125 563.0859375 750 532.8125 750 500S733.0078125 437.109375 705.078125 419.921875L142.578125 76.171875C113.671875 58.3984375 77.34375 57.8125 47.8515625 74.4140625S0 122.265625 0 156.25V843.75C0 877.734375 18.359375 908.984375 47.8515625 925.5859375z" />
    <glyph glyph-name="pay"
      unicode="&#xF11C;"
      horiz-adv-x="1000" d="M583.5 573.15A15 15 0 0 1 568.4 558.35V447.75A15 15 0 0 1 583.5500000000001 432.95H916.7A15 15 0 0 1 931.85 447.75V558.35A15 15 0 0 1 916.7 573.15H583.5500000000001zM787.8000000000001 924.95C833.9000000000001 922.75 867.0500000000001 913.65 888.05 894.35C908.8 875.25 919.45 847.6 921.55 811V706.15A33.7 33.7 0 0 0 887.5 672.85A33.7 33.7 0 0 0 853.4 706.15L853.4499999999999 809.1C852.3499999999999 828.0999999999999 847.7999999999998 839.9 841.3 845.9C835 851.7 815.8 856.9 786.1499999999999 858.4H132.35C105.5 857.4 88.05 852.3 79.6 845.05C73.1 839.5 68.2 824.2 68.15 797.75L68 209.2499999999999C70.5 183.5499999999999 76.15 166.3999999999999 83.4 157.8499999999999C88.9 151.35 105.95 144.8499999999999 131.05 141.65H786.85C817.55 141.05 835.65 145.65 841.75 151.8C848.5 158.65 853.4000000000001 176.65 853.4000000000001 206.0999999999999V308.3499999999999C853.4000000000001 326.7 868.65 341.6499999999999 887.5000000000001 341.6499999999999C906.3 341.6499999999999 921.55 326.7 921.55 308.3499999999999V206.0999999999999C921.55 161.0999999999999 912.3500000000003 127.4499999999999 890.8000000000001 105.5999999999999C868.6 83.0999999999999 833.3000000000001 74.0999999999999 786.15 75.0999999999999L127 75.25C82.15 80.4500000000001 50 92.75 30.85 115.4000000000001C13.5 135.9 3.85 165.15 0 206.0500000000001V797.8C0.1 841.6 10.6 874.55 34.7 895.15C56.8 914.15 88.7 923.4 131.05 925H787.8zM916.7 639.75C962.7000000000002 639.75 1000 603.3 1000 558.35V447.75C1000 402.8 962.7 366.3499999999999 916.7 366.3499999999999H583.5500000000001C537.55 366.3499999999999 500.25 402.8499999999999 500.25 447.75V558.35C500.25 603.3 537.55 639.75 583.5500000000001 639.75H916.7zM666.85 542.75C643.85 542.75 625.2 524.75 625.2 502.5999999999999C625.2 480.4 643.85 462.4499999999999 666.85 462.4499999999999C689.85 462.4499999999999 708.5 480.4499999999999 708.5 502.5999999999999C708.5 524.8 689.85 542.8 666.85 542.8z" />
    <glyph glyph-name="pay-1"
      unicode="&#x70;&#x61;&#x79;"
      horiz-adv-x="1000" d="M583.5 573.15A15 15 0 0 1 568.4 558.35V447.75A15 15 0 0 1 583.5500000000001 432.95H916.7A15 15 0 0 1 931.85 447.75V558.35A15 15 0 0 1 916.7 573.15H583.5500000000001zM787.8000000000001 924.95C833.9000000000001 922.75 867.0500000000001 913.65 888.05 894.35C908.8 875.25 919.45 847.6 921.55 811V706.15A33.7 33.7 0 0 0 887.5 672.85A33.7 33.7 0 0 0 853.4 706.15L853.4499999999999 809.1C852.3499999999999 828.0999999999999 847.7999999999998 839.9 841.3 845.9C835 851.7 815.8 856.9 786.1499999999999 858.4H132.35C105.5 857.4 88.05 852.3 79.6 845.05C73.1 839.5 68.2 824.2 68.15 797.75L68 209.2499999999999C70.5 183.5499999999999 76.15 166.3999999999999 83.4 157.8499999999999C88.9 151.35 105.95 144.8499999999999 131.05 141.65H786.85C817.55 141.05 835.65 145.65 841.75 151.8C848.5 158.65 853.4000000000001 176.65 853.4000000000001 206.0999999999999V308.3499999999999C853.4000000000001 326.7 868.65 341.6499999999999 887.5000000000001 341.6499999999999C906.3 341.6499999999999 921.55 326.7 921.55 308.3499999999999V206.0999999999999C921.55 161.0999999999999 912.3500000000003 127.4499999999999 890.8000000000001 105.5999999999999C868.6 83.0999999999999 833.3000000000001 74.0999999999999 786.15 75.0999999999999L127 75.25C82.15 80.4500000000001 50 92.75 30.85 115.4000000000001C13.5 135.9 3.85 165.15 0 206.0500000000001V797.8C0.1 841.6 10.6 874.55 34.7 895.15C56.8 914.15 88.7 923.4 131.05 925H787.8zM916.7 639.75C962.7000000000002 639.75 1000 603.3 1000 558.35V447.75C1000 402.8 962.7 366.3499999999999 916.7 366.3499999999999H583.5500000000001C537.55 366.3499999999999 500.25 402.8499999999999 500.25 447.75V558.35C500.25 603.3 537.55 639.75 583.5500000000001 639.75H916.7zM666.85 542.75C643.85 542.75 625.2 524.75 625.2 502.5999999999999C625.2 480.4 643.85 462.4499999999999 666.85 462.4499999999999C689.85 462.4499999999999 708.5 480.4499999999999 708.5 502.5999999999999C708.5 524.8 689.85 542.8 666.85 542.8z" />
    <glyph glyph-name="p12"
      unicode="&#xF11D;"
      horiz-adv-x="1000" d="M875 93.75H437.5V31.25C437.5 20.5078125 435.546875 9.9609375 432.2265625 0H875C943.9453125 0 1000 56.0546875 1000 125V698.2421875C1000 731.4453125 986.9140625 763.28125 963.4765625 786.71875L786.5234375 963.4765625C763.0859375 986.9140625 731.4453125 1000 698.2421875 1000H375C306.0546875 1000 250 943.9453125 250 875V736.1328125L250.1953125 736.328125C253.125 737.6953125 258.0078125 740.234375 263.0859375 742.1875C289.6484375 752.9296875 318.359375 752.734375 343.75 743.1640625V875C343.75 892.1875 357.8125 906.25 375 906.25H687.5V750C687.5 715.4296875 715.4296875 687.5 750 687.5H906.25V125C906.25 107.8125 892.1875 93.75 875 93.75zM213.28125 684.375C193.75 692.3828125 171.2890625 686.328125 158.3984375 669.7265625L137.890625 643.359375C135.3515625 640.0390625 131.640625 638.0859375 127.734375 637.5L94.7265625 633.0078125C73.828125 630.078125 57.421875 613.671875 54.6875 592.96875L50.1953125 559.9609375C49.609375 555.859375 47.4609375 552.1484375 44.3359375 549.8046875L17.7734375 529.1015625C1.171875 516.2109375 -4.8828125 493.75 3.125 474.21875L15.625 443.359375C17.1875 439.6484375 17.1875 435.3515625 15.625 431.4453125L3.125 400.78125C-4.8828125 381.25 1.171875 358.7890625 17.7734375 345.8984374999999L44.140625 325.3906249999999C47.4609375 322.8515624999999 49.4140625 319.140625 50 315.234375L54.4921875 282.2265625C57.421875 261.328125 73.828125 244.921875 94.53125 241.9921875L125 237.890625V31.25C125 19.7265625 131.25 9.1796875 141.6015625 3.7109375S164.0625 -1.171875 173.6328125 5.2734375L250 56.25L326.3671875 5.2734375C335.9375 -1.171875 348.2421875 -1.7578125 358.3984375 3.7109375S375 19.7265624999999 375 31.25V237.890625L405.2734375 241.9921875000001C426.171875 244.9218750000001 442.578125 261.328125 445.3125 282.2265625000001L449.8046875 315.2343750000001C450.3906250000001 319.3359375000001 452.5390625000001 323.0468750000001 455.6640625 325.390625L482.03125 345.8984375C498.6328125 358.7890625000001 504.6875000000001 381.2500000000001 496.6796875 400.7812500000001L484.375 431.640625C482.8125 435.3515625 482.8125 439.6484375 484.375 443.5546875L497.0703125 474.4140625000001C505.0781250000001 493.9453125000001 499.0234375 516.40625 482.421875 529.296875L456.0546875 549.8046875C452.734375 552.34375 450.78125 556.0546875 450.1953125 559.9609375L445.703125 592.96875C442.7734375 613.8671875 426.3671875 630.2734375 405.6640625 633.0078125L372.65625 637.5C368.5546875 638.0859375000001 364.84375 640.234375 362.5 643.359375L341.9921875 669.7265625C329.1015625 686.328125 306.640625 692.3828125 287.109375 684.375L255.859375 671.875C252.1484375 670.3125 247.8515625 670.3125 243.9453125 671.875L213.0859375 684.5703125zM125 437.5A125 125 0 1 0 375 437.5A125 125 0 1 0 125 437.5z" />
    <glyph glyph-name="p12-1"
      unicode="&#x70;&#x31;&#x32;"
      horiz-adv-x="1000" d="M875 93.75H437.5V31.25C437.5 20.5078125 435.546875 9.9609375 432.2265625 0H875C943.9453125 0 1000 56.0546875 1000 125V698.2421875C1000 731.4453125 986.9140625 763.28125 963.4765625 786.71875L786.5234375 963.4765625C763.0859375 986.9140625 731.4453125 1000 698.2421875 1000H375C306.0546875 1000 250 943.9453125 250 875V736.1328125L250.1953125 736.328125C253.125 737.6953125 258.0078125 740.234375 263.0859375 742.1875C289.6484375 752.9296875 318.359375 752.734375 343.75 743.1640625V875C343.75 892.1875 357.8125 906.25 375 906.25H687.5V750C687.5 715.4296875 715.4296875 687.5 750 687.5H906.25V125C906.25 107.8125 892.1875 93.75 875 93.75zM213.28125 684.375C193.75 692.3828125 171.2890625 686.328125 158.3984375 669.7265625L137.890625 643.359375C135.3515625 640.0390625 131.640625 638.0859375 127.734375 637.5L94.7265625 633.0078125C73.828125 630.078125 57.421875 613.671875 54.6875 592.96875L50.1953125 559.9609375C49.609375 555.859375 47.4609375 552.1484375 44.3359375 549.8046875L17.7734375 529.1015625C1.171875 516.2109375 -4.8828125 493.75 3.125 474.21875L15.625 443.359375C17.1875 439.6484375 17.1875 435.3515625 15.625 431.4453125L3.125 400.78125C-4.8828125 381.25 1.171875 358.7890625 17.7734375 345.8984374999999L44.140625 325.3906249999999C47.4609375 322.8515624999999 49.4140625 319.140625 50 315.234375L54.4921875 282.2265625C57.421875 261.328125 73.828125 244.921875 94.53125 241.9921875L125 237.890625V31.25C125 19.7265625 131.25 9.1796875 141.6015625 3.7109375S164.0625 -1.171875 173.6328125 5.2734375L250 56.25L326.3671875 5.2734375C335.9375 -1.171875 348.2421875 -1.7578125 358.3984375 3.7109375S375 19.7265624999999 375 31.25V237.890625L405.2734375 241.9921875000001C426.171875 244.9218750000001 442.578125 261.328125 445.3125 282.2265625000001L449.8046875 315.2343750000001C450.3906250000001 319.3359375000001 452.5390625000001 323.0468750000001 455.6640625 325.390625L482.03125 345.8984375C498.6328125 358.7890625000001 504.6875000000001 381.2500000000001 496.6796875 400.7812500000001L484.375 431.640625C482.8125 435.3515625 482.8125 439.6484375 484.375 443.5546875L497.0703125 474.4140625000001C505.0781250000001 493.9453125000001 499.0234375 516.40625 482.421875 529.296875L456.0546875 549.8046875C452.734375 552.34375 450.78125 556.0546875 450.1953125 559.9609375L445.703125 592.96875C442.7734375 613.8671875 426.3671875 630.2734375 405.6640625 633.0078125L372.65625 637.5C368.5546875 638.0859375000001 364.84375 640.234375 362.5 643.359375L341.9921875 669.7265625C329.1015625 686.328125 306.640625 692.3828125 287.109375 684.375L255.859375 671.875C252.1484375 670.3125 247.8515625 670.3125 243.9453125 671.875L213.0859375 684.5703125zM125 437.5A125 125 0 1 0 375 437.5A125 125 0 1 0 125 437.5z" />
    <glyph glyph-name="noeye"
      unicode="&#xF11E;"
      horiz-adv-x="1000" d="M60.625 792.03125C44.375 804.84375 20.78125 801.875 7.96875 785.625S-1.875 745.78125 14.375 732.96875L939.3750000000002 7.96875C955.625 -4.84375 979.2187500000002 -1.8749999999999 992.0312500000002 14.3750000000001S1001.8750000000002 54.2187500000001 985.6250000000002 67.03125L821.25 195.78125C883.1250000000001 259.21875 925 330.3125 946.09375 380.7812500000001C951.2499999999998 393.1250000000001 951.2499999999998 406.8750000000001 946.09375 419.2187500000001C922.8125 475.0000000000001 873.9062499999999 556.2500000000001 800.78125 624.0625C727.34375 692.5 626.25 750 500 750C393.4375 750 304.6875 708.90625 235.46875 655L60.625 792.03125zM296.5625 607.1875C353.125 647.34375 421.09375 675 500 675C601.875 675 685.625 628.75 749.84375 569.21875C810 513.28125 851.5625 446.875 872.8125 400C853.125 356.25 815.625 295.625 762.0312500000001 242.34375L677.96875 308.28125C692.1875000000001 335.7812500000001 700.15625 366.875 700.15625 400C700.15625 510.46875 610.625 600 500.1562500000001 600C449.8437500000001 600 403.7500000000001 581.40625 368.5937500000001 550.78125L296.5625000000001 607.1875zM617.03125 355.9375L489.6874999999999 455.78125C496.2499999999999 469.0625 500 484.21875 500 500.0000000000001C500 508.5937500000001 498.90625 517.03125 496.875 525C497.96875 525 498.90625 525 500 525C569.0625 525 625 469.0625000000001 625 400.0000000000001C625 384.5312500000001 622.1875 369.6875000000001 617.03125 355.9375zM697.1875 100.78125L631.71875 152.34375C591.875 135.3125 547.96875 125 500 125C398.125 125 314.375 171.25 250.15625 230.78125C190 286.71875 148.4375 353.125 127.1875 400C140.15625 428.75 160.78125 464.84375 188.75 501.25L129.84375 547.65625C94.21875 501.25 68.75 455 53.90625 419.21875C48.75 406.875 48.75 393.1250000000001 53.90625 380.78125C77.1875 325 126.09375 243.75 199.21875 175.9375C272.65625 107.5 373.75 50 500 50C574.6875 50 640.46875 70.15625 697.1875 100.78125zM559.6875 209.0625L471.875 278.125C435.15625 286.5625 404.53125 311.25 387.96875 344.21875L300.3125 413.28125C300.0000000000001 408.90625 299.84375 404.53125 299.84375 400C299.84375 289.53125 389.375 200 499.8437499999999 200C520.625 200 540.625 203.125 559.53125 209.0625z" />
    </font>
</defs>
</svg>
